<?xml version="1.0" standalone="no"?>
<!DOCTYPE svg PUBLIC "-//W3C//DTD SVG 1.1//EN" "http://www.w3.org/Graphics/SVG/1.1/DTD/svg11.dtd" >
<svg xmlns="http://www.w3.org/2000/svg">
<metadata>Generated by IcoMoon</metadata>
<defs>
<font id="icomoon" horiz-adv-x="1024">
<font-face units-per-em="1024" ascent="960" descent="-64" />
<missing-glyph horiz-adv-x="1024" />
<glyph unicode="&#x20;" horiz-adv-x="512" d="" />
<glyph unicode="&#xe900;" glyph-name="aaawesome-check-circle" d="M1024 448c0-282.77-229.23-512-512-512s-512 229.23-512 512c0 282.77 229.23 512 512 512v0c282.77 0 512-229.23 512-512v0zM452.776 176.906l379.956 379.956c5.973 5.979 9.667 14.236 9.667 23.355s-3.694 17.376-9.667 23.355v0l-46.71 46.71c-5.979 5.973-14.236 9.667-23.355 9.667s-17.376-3.694-23.355-9.667v0l-309.821-309.786-144.732 144.558c-5.979 5.973-14.236 9.667-23.355 9.667s-17.376-3.694-23.355-9.667v0l-46.71-46.71c-5.973-5.979-9.667-14.236-9.667-23.355s3.694-17.376 9.667-23.355v0l214.728-214.728c5.979-5.973 14.236-9.667 23.355-9.667s17.376 3.694 23.355 9.667v0z" />
<glyph unicode="&#xe901;" glyph-name="aaawesome-heart" d="M927.36 834.56c-46.722 38.083-106.994 61.154-172.655 61.154-79.699 0-151.459-33.99-201.575-88.264l-0.17-0.186-39.424-40.704-39.52 40.736c-50.286 54.46-122.046 88.45-201.745 88.45-65.661 0-125.934-23.071-173.154-61.548l0.499 0.394c-61.21-53.107-99.694-131.015-99.694-217.91 0-77.315 30.466-147.515 80.047-199.248l-0.097 0.102 388.16-400.768c11.468-11.974 27.585-19.416 45.44-19.416s33.972 7.442 45.418 19.393l0.022 0.023 388.128 400.768c49.5 51.635 79.977 121.845 79.977 199.174 0 86.863-38.455 164.745-99.27 217.549l-0.355 0.301z" />
<glyph unicode="&#xe902;" glyph-name="aawesome-edit" d="M724.816 766.493l162.377-162.377c3.181-3.177 5.148-7.569 5.148-12.42s-1.968-9.242-5.148-12.419v0l-393.187-393.216-167.058-18.549c-1.143-0.132-2.467-0.207-3.809-0.207-19.39 0-35.109 15.719-35.109 35.109 0 1.351 0.076 2.684 0.225 3.996l-0.015-0.161 18.549 167.058 393.187 393.187c3.177 3.181 7.569 5.148 12.42 5.148s9.242-1.968 12.419-5.148v0zM1016.481 807.717l-87.771 87.771c-12.738 12.709-30.32 20.567-49.737 20.567s-36.999-7.859-49.738-20.569l0.001 0.001-63.722-63.634c-3.181-3.177-5.148-7.569-5.148-12.42s1.968-9.242 5.148-12.419v0l162.377-162.377c3.177-3.181 7.569-5.148 12.42-5.148s9.242 1.968 12.419 5.148v0l63.722 63.722c12.709 12.738 20.567 30.32 20.567 49.737s-7.859 36.999-20.569 49.738l0.001-0.001zM691.346 293.142v-183.267h-576.132v575.985h413.725c5.959 0.045 11.352 2.436 15.306 6.295l-0.005-0.004 72.031 72.031c3.928 3.911 6.358 9.322 6.358 15.302 0 11.925-9.667 21.592-21.592 21.592-0.024 0-0.048 0-0.071 0h-514.541c-47.732 0-86.426-38.694-86.426-86.426v0-633.71c0-47.732 38.694-86.426 86.426-86.426h633.71c47.732 0 86.426 38.694 86.426 86.426v0 284.087c-0.042 11.926-9.719 21.577-21.65 21.577-5.946 0-11.332-2.397-15.245-6.277l-72.001-72.001c-3.839-3.919-6.234-9.264-6.319-15.168v-0.016z" />
<glyph unicode="&#xe904;" glyph-name="aawesome-thumbs-up" d="M207.99 512.003h-159.93c-26.543 0-48.060-21.517-48.060-48.060v0-479.938c0-26.543 21.517-48.060 48.060-48.060v0h160.004c26.543 0 48.060 21.517 48.060 48.060v0 479.994c-0.032 26.519-21.537 48.005-48.060 48.005-0.026 0-0.052 0-0.078 0h0.004zM128.007 16.002c-26.543 0-48.060 21.517-48.060 48.060s21.517 48.060 48.060 48.060c26.543 0 48.060-21.517 48.060-48.060v0c0-26.543-21.517-48.060-48.060-48.060v0zM768.005 797.094c0-84.827-51.942-132.425-66.545-189.099h203.425c64.714-0.16 117.33-51.734 119.167-116.025l0.004-0.17c-0.075-38.068-14.827-72.676-38.897-98.48l0.079 0.085-0.222-0.222c7.656-18.476 12.103-39.933 12.103-62.429 0-36.189-11.507-69.691-31.061-97.046l0.344 0.507c4.141-13.46 6.526-28.932 6.526-44.962 0-40.14-14.954-76.788-39.594-104.675l0.147 0.17c3.035-9.424 4.785-20.265 4.785-31.515 0-21.468-6.371-41.447-17.326-58.151l0.248 0.403c-40.814-58.652-142-59.465-227.547-59.465h-5.693c-96.583 0-175.605 35.121-239.119 63.458-30.561 16.024-66.149 27.434-103.812 32.189l-1.551 0.16c-13.071 0.259-23.568 10.917-23.568 24.026 0 0.002 0 0.003 0 0.005v0 427.497c0.008 6.665 2.727 12.693 7.115 17.041l0.002 0.002c79.226 78.283 113.293 161.169 178.23 226.216 29.576 29.576 40.371 74.475 50.778 117.803 9.002 37.006 27.616 115.585 67.968 115.585 48.005 0 144.015-16.008 144.015-162.906z" />
<glyph unicode="&#xe905;" glyph-name="awesome-check" d="M356.746 74.004l-340.992 341.386c-9.501 9.507-15.377 22.637-15.377 37.14s5.876 27.633 15.378 37.14l74.279 74.279c9.507 9.501 22.637 15.377 37.14 15.377s27.633-5.876 37.14-15.378v0l229.534-230.006 492.465 492.465c9.507 9.501 22.637 15.377 37.14 15.377s27.633-5.876 37.14-15.378l74.279-74.279c9.501-9.507 15.377-22.637 15.377-37.14s-5.876-27.633-15.378-37.14l-603.923-603.845c-9.503-9.478-22.617-15.338-37.1-15.338s-27.598 5.86-37.101 15.339l0.001-0.001z" />
<glyph unicode="&#xe906;" glyph-name="awesome-flag-usa" d="M63.996 959.886c-0.017 0-0.037 0-0.057 0-35.313 0-63.94-28.627-63.94-63.94v0-927.977c0.032-17.655 14.319-31.962 31.964-32.027h64.002c17.63 0.064 31.905 14.339 31.97 31.964v928.040c0 35.313-28.627 63.94-63.94 63.94v0zM599.746 352.745c-52.73 19.107-113.589 30.154-177.029 30.154-83.878 0-163.245-19.313-233.898-53.734l3.17 1.394v-138.631c371.407 184.367 443.367-106.604 794.978 46.191 21.978 10.028 36.978 31.812 36.978 57.1 0 0.205-0.001 0.409-0.003 0.613v-0.031 71.96c-66.030-28.845-142.827-46.393-223.512-48.17l-0.674-0.012c-72.151 2.308-140.645 14.288-205.405 34.687l5.395-1.466zM599.746 544.734c-52.73 19.107-113.589 30.154-177.029 30.154-83.878 0-163.245-19.313-233.898-53.734l3.17 1.394v-122.987c68.433 29.823 148.161 47.175 231.941 47.175 68.837 0 134.937-11.714 196.417-33.256l-4.162 1.27c52.711-19.092 113.546-30.13 176.96-30.13 83.905 0 163.296 19.325 233.965 53.766l-3.169-1.394v122.987c-66.030-28.845-142.827-46.393-223.512-48.17l-0.674-0.012c-72.086 2.12-140.605 14.031-205.349 34.446l5.339-1.452zM618.746 796.51c103.703-31.173 194.72-57.967 405.197 40.218v61.607c-1.241 34.903-29.834 62.726-64.925 62.726-12.534 0-24.238-3.549-34.163-9.698l0.278 0.16c-342.566-174.582-314.407 132.771-733.143-56.374v-303.77c68.454 29.776 148.196 47.099 231.983 47.099 68.817 0 134.904-11.686 196.386-33.181l-4.172 1.27c52.706-19.010 113.527-29.999 176.915-29.999 83.901 0 163.304 19.253 234.034 53.583l-3.192-1.398v137.72c-73.591-36.578-159.857-59.322-251.092-62.544l-1.082-0.030c-61.91 1.741-120.585 13.25-175.301 33.032l3.904-1.233c-8.021 2.389-16.212 4.778-24.176 6.997v66.272c14.392-3.982 28.443-8.192 42.607-12.401zM319.982 703.9c-17.656 0-31.97 14.313-31.97 31.97s14.313 31.97 31.97 31.97c17.656 0 31.97-14.313 31.97-31.97v0c0-17.656-14.313-31.97-31.97-31.97v0zM319.982 815.51c-17.656 0-31.97 14.313-31.97 31.97s14.313 31.97 31.97 31.97c17.656 0 31.97-14.313 31.97-31.97v0c0-0.051 0-0.111 0-0.171 0-17.656-14.313-31.97-31.97-31.97 0 0 0 0 0 0v0zM447.975 719.715c-17.656 0-31.97 14.313-31.97 31.97s14.313 31.97 31.97 31.97c17.656 0 31.97-14.313 31.97-31.97v0c0-0.051 0-0.111 0-0.171 0-17.656-14.313-31.97-31.97-31.97 0 0 0 0 0 0v0zM447.975 831.495c-17.656 0.001-31.969 14.314-31.969 31.97s14.313 31.97 31.97 31.97c17.656 0 31.97-14.313 31.97-31.97 0-0.1 0-0.2-0.001-0.3v0.015c-0.065-17.607-14.353-31.856-31.97-31.856 0 0 0 0 0 0v0z" />
<glyph unicode="&#xe907;" glyph-name="awesome-phone-alt" d="M994.784 236.373l-223.992 96.011c-5.567 2.446-12.057 3.87-18.879 3.87-14.972 0-28.342-6.858-37.141-17.603l-0.068-0.085-99.223-121.199c-156.316 74.881-279.489 198.054-352.444 349.92l-1.926 4.449 121.301 99.223c10.842 8.848 17.71 22.211 17.71 37.178 0 6.835-1.432 13.335-4.013 19.217l0.12-0.307-96.011 223.941c-7.653 17.209-24.599 28.992-44.297 28.992-3.8 0-7.498-0.439-11.046-1.268l0.327 0.064-207.982-48.031c-21.48-5.068-37.221-24.074-37.222-46.756v0c0-512.514 415.475-927.989 927.989-927.989v0c0.015 0 0.032 0 0.049 0 22.684 0 41.691 15.741 46.693 36.896l0.065 0.326 47.98 207.982c0.752 3.202 1.182 6.878 1.182 10.654 0 19.833-11.882 36.891-28.916 44.443l-0.31 0.123z" />
<glyph unicode="&#xe908;" glyph-name="awesome-user-circle" d="M512 960c-282.748-0.029-511.95-229.248-511.95-512 0-282.77 229.23-512 512-512s512 229.23 512 512v0c0 0.030 0 0.065 0 0.1 0 282.715-229.186 511.9-511.9 511.9-0.052 0-0.105 0-0.157 0h0.008zM512 761.81c100.331 0 181.666-81.335 181.666-181.666s-81.335-181.666-181.666-181.666c-100.331 0-181.666 81.335-181.666 181.666v0c0 100.331 81.335 181.666 181.666 181.666v0zM512 51.619c-121.034 0.090-229.337 54.516-301.849 140.2l-0.479 0.58c39.205 73.789 115.494 123.233 203.351 123.457h0.031c5.246-0.024 10.292-0.843 15.035-2.344l-0.358 0.098c25.14-8.739 54.123-13.923 84.276-14.227l0.143-0.001c30.291 0.285 59.277 5.472 86.333 14.802l-1.915-0.574c4.385 1.403 9.431 2.223 14.665 2.246h0.012c87.888-0.224 164.177-49.668 202.779-122.214l0.604-1.243c-73.051-86.335-181.474-140.78-302.614-140.78-0.005 0-0.009 0-0.014 0v0z" />
<glyph unicode="&#xe90a;" glyph-name="Group-1085" d="M906.24 793.234c0-82.003-66.477-148.48-148.48-148.48s-148.48 66.477-148.48 148.48c0 82.003 66.477 148.48 148.48 148.48s148.48-66.477 148.48-148.48zM439.589 453.851c0-82.003-66.477-148.48-148.48-148.48s-148.48 66.477-148.48 148.48c0 82.003 66.477 148.48 148.48 148.48s148.48-66.477 148.48-148.48zM821.394 114.469c0-82.003-66.477-148.48-148.48-148.48s-148.48 66.477-148.48 148.48c0 82.003 66.477 148.48 148.48 148.48s148.48-66.477 148.48-148.48z" />
<glyph unicode="&#xe90c;" glyph-name="Group-1973" d="M875.939-84.201h-734.627c-14.809 6.154-25.032 20.503-25.032 37.239 0 1.639 0.098 3.256 0.289 4.844l-0.019-0.192q0.652 398.941 0.279 797.882c0 3.398 0 6.796 0 10.193-0.002 0.133-0.003 0.29-0.003 0.447 0 15.007 10.976 27.45 25.339 29.738l0.172 0.023c23.878 1.676 47.895 0.465 72.471 0.465 0-22.761-0.372-44.823 0-66.886 0.923-52.255 43.028-94.376 95.189-95.324l0.090-0.001c132.329-0.605 264.657-0.279 396.94 0 19.735 0.029 37.978 6.394 52.81 17.169l-0.26-0.18c25.816 17.355 42.606 46.407 42.729 79.388v0.019c0.559 21.969 0 43.939 0 65.536 0.889 0.413 1.931 0.765 3.015 1.005l0.103 0.019h54.086c29.231 0 40.82-11.543 40.82-40.588q0-399.453 0.279-798.906c0.177-1.416 0.278-3.055 0.278-4.718 0-16.696-10.186-31.012-24.682-37.075l-0.265-0.098zM590.196 470.9c37.236 0 74.147-0.279 111.197 0.279 7.784 0.166 15.042 2.269 21.357 5.843l-0.226-0.117c8.876 5.48 14.703 15.153 14.703 26.188 0 3.315-0.526 6.507-1.498 9.497l0.061-0.217c-3.959 13.852-16.506 23.82-31.382 23.82-0.537 0-1.070-0.013-1.601-0.039l0.075 0.003q-111.709 0-223.418 0c-1.189 0.153-2.565 0.24-3.962 0.24-18.149 0-32.861-14.712-32.861-32.861s14.712-32.861 32.861-32.861c1.611 0 3.195 0.116 4.743 0.34l-0.177-0.021q55.017-0.186 110.127-0.14zM590.615 340.294c37.236 0 74.147 0 111.197 0 17.914 0.106 32.396 14.653 32.396 32.582 0 17.995-14.588 32.582-32.582 32.582-0.065 0-0.131 0-0.196-0.001h0.010q-111.197 0-222.441 0c-17.914-0.106-32.396-14.653-32.396-32.582 0-17.995 14.588-32.582 32.582-32.582 0.065 0 0.131 0 0.196 0.001h-0.010q55.622-0.14 111.244-0.047zM591.22 275.13h-111.197c-1.366 0.201-2.942 0.316-4.545 0.316-18.149 0-32.861-14.712-32.861-32.861s14.712-32.861 32.861-32.861c1.405 0 2.79 0.088 4.148 0.259l-0.162-0.017q110.685 0 221.417 0c1.212-0.158 2.613-0.249 4.036-0.249 18.149 0 32.861 14.712 32.861 32.861s-14.712 32.861-32.861 32.861c-1.588 0-3.149-0.113-4.677-0.33l0.175 0.020zM591.22 144.524q-56.134 0-112.221 0c-17.895-0.132-32.35-14.669-32.35-32.582 0-17.995 14.588-32.583 32.583-32.583 0.082 0 0.164 0 0.245 0.001h-0.013q110.685 0 221.417 0c1.212-0.158 2.613-0.249 4.036-0.249 18.149 0 32.861 14.712 32.861 32.861s-14.712 32.861-32.861 32.861c-1.588 0-3.149-0.113-4.677-0.33l0.175 0.020zM329.356 471.087v0c6.144 0 12.241-0.372 18.339 0 17.914 0.106 32.396 14.653 32.396 32.582 0 17.995-14.588 32.582-32.582 32.582-0.065 0-0.131 0-0.196-0.001h0.010c-12.195 0.605-24.483 0.559-36.724 0-17.075-0.889-30.594-14.911-30.673-32.108v-0.008c-0.001-0.108-0.002-0.236-0.002-0.364 0-17.439 13.7-31.677 30.924-32.54l0.077-0.003c6.144-0.605 12.288-0.326 18.432-0.326zM328.844 340.48c6.097 0 12.241-0.326 18.339 0 17.924 0.093 32.419 14.644 32.419 32.582 0 17.995-14.588 32.582-32.582 32.582-0.057 0-0.115 0-0.172 0h0.009c-11.869 0.512-23.785 0.465-35.7 0-17.383-0.769-31.185-15.049-31.185-32.552 0-0.011 0-0.021 0-0.032v0.002c0-0.005 0-0.011 0-0.018 0-17.618 13.983-31.97 31.457-32.563l0.054-0.001c5.772-0.419 11.357-0.186 17.315-0.14zM328.844 275.037c-6.097 0-12.241 0.326-18.339 0-0.083 0.001-0.181 0.001-0.279 0.001-17.995 0-32.583-14.588-32.583-32.583 0-17.897 14.429-32.424 32.289-32.582h0.015c5.633-0.334 12.22-0.525 18.851-0.525s13.218 0.191 19.756 0.567l-0.905-0.042c16.901 1.322 30.115 15.362 30.115 32.488 0 0.033 0 0.066 0 0.099v-0.005c-0.119 17.198-13.543 31.222-30.486 32.298l-0.095 0.005c-5.958 0.465-12.148 0.14-18.246 0.14zM329.216 79.267v0c6.097 0 12.241-0.372 18.339 0 17.934 0.079 32.442 14.636 32.442 32.582 0 17.995-14.588 32.582-32.582 32.582-0.049 0-0.098 0-0.147 0h0.008c-12.195 0.605-24.483 0.559-36.724 0-16.998-1.026-30.426-14.941-30.673-32.046v-0.024c-0.001-0.108-0.002-0.236-0.002-0.364 0-17.439 13.7-31.677 30.924-32.54l0.077-0.003c6.191-0.652 12.335-0.372 18.432-0.372zM381.161 862.673c15.752 56.522 66.776 97.304 127.325 97.304s111.573-40.781 127.104-96.375l0.221-0.928c21.551 0 43.287 0 65.164 0 1.023 0.112 2.209 0.177 3.409 0.177 18.226 0 33.001-14.775 33.001-33.001 0-1.111-0.055-2.209-0.162-3.292l0.011 0.137q0-45.894 0-91.834c0.089-0.901 0.139-1.948 0.139-3.007 0-17.994-14.587-32.582-32.582-32.582-1.164 0-2.313 0.061-3.445 0.18l0.141-0.012q-192.838 0-385.722 0c-0.901-0.088-1.947-0.138-3.005-0.138-18.123 0-32.815 14.692-32.815 32.815 0 0.982 0.043 1.955 0.128 2.915l-0.009-0.124q0 46.545 0 92.858c-0.056 0.716-0.088 1.55-0.088 2.392 0 17.994 14.587 32.582 32.582 32.582 0.948 0 1.887-0.041 2.815-0.12l-0.121 0.008c21.969 0.14 44.079 0.047 65.908 0.047z" />
<glyph unicode="&#xe90d;" glyph-name="Group-1974" d="M334.026 263.583h-48.896c-10.453 3.383-17.88 13.031-17.88 24.414 0 1.172 0.079 2.325 0.231 3.455l-0.015-0.132c0.273 78.681 0.137 157.389 0.137 236.070v4.477c13.35-0.683 25.881-1.638 38.44-1.911 14.551-0.328 29.13 0.218 43.681-0.137 1.36-0.091 2.948-0.143 4.549-0.143 17.543 0 33.629 6.24 46.16 16.621l-0.12-0.097c0.218 0.191 0.655 0 1.338 0.191 12.725-10.548 29.221-16.948 47.211-16.948 1.976 0 3.935 0.077 5.872 0.229l-0.256-0.016c40.214 0.41 80.428 0 120.642 0.191 6.053 0.061 11.927 0.644 17.633 1.707l-0.624-0.097c12.009 2.434 22.484 7.854 30.967 15.452l-0.062-0.055c12.641-10.867 29.208-17.483 47.321-17.483 2.564 0 5.097 0.133 7.593 0.391l-0.312-0.026c6.364-0.355 13.811-0.557 21.305-0.557 20.163 0 39.984 1.463 59.363 4.288l-2.205-0.264v-6.443c0-78.517-0.137-157.034 0.137-235.552 0.134-0.987 0.211-2.127 0.211-3.285 0-11.391-7.422-21.049-17.693-24.401l-0.181-0.051h-248.52c-0.137 2.048-0.41 4.122-0.41 6.17q0 34.809 0 69.617c0 40.023-0.328 80.046 0.164 120.124 0.071 0.689 0.111 1.488 0.111 2.297 0 13.178-10.683 23.861-23.861 23.861-0.712 0-1.416-0.031-2.112-0.092l0.090 0.006c-34.972-0.655-69.972-0.191-104.972-0.246-0.333 0.012-0.725 0.019-1.118 0.019-2.507 0-4.947-0.286-7.29-0.826l0.218 0.042c-9.624-2.615-16.585-11.274-16.585-21.559 0-1.062 0.074-2.107 0.218-3.13l-0.014 0.118q0-94.843 0-189.686c-0.055-2.129-0.328-4.368-0.464-6.607zM612.303 485.293c-18.21 0-36.392 0-54.602 0-0.55 0.050-1.19 0.078-1.837 0.078-11.942 0-21.622-9.681-21.622-21.622 0-0.431 0.013-0.859 0.037-1.283l-0.003 0.059q-0.382-32.461 0-64.976c-0.023-0.374-0.036-0.812-0.036-1.252 0-11.942 9.681-21.622 21.622-21.622 0.647 0 1.287 0.028 1.92 0.084l-0.082-0.006q54.056 0 108.139 0c0.55-0.050 1.19-0.078 1.837-0.078 11.942 0 21.622 9.681 21.622 21.622 0 0.431-0.013 0.859-0.037 1.283l0.003-0.059q0.41 32.488 0 64.976c0.022 0.365 0.035 0.792 0.035 1.222 0 11.957-9.693 21.65-21.65 21.65-0.637 0-1.267-0.027-1.89-0.081l0.081 0.006c-17.855-0.055-35.71-0.055-53.537-0.055zM245.708 618.466c2.048 0.137 4.122 0.41 6.17 0.41h520.245c2.075 0 4.122-0.273 6.17-0.41v-29.13c-0.36-0.732-0.73-1.635-1.043-2.563l-0.049-0.167c-4.588-19.574-21.733-33.986-42.304-34.344l-0.039-0.001q-34.317-0.601-68.662 0c-20.238 0.407-37.095 14.406-41.842 33.221l-0.065 0.304c-0.382 1.474-0.901 2.921-1.583 5.133-3.122-22.024-21.849-38.777-44.489-38.777-0.33 0-0.66 0.004-0.988 0.011l0.049-0.001q-65.276-0.164-130.553 0c-0.038 0-0.083 0-0.128 0-4.332 0-8.529 0.578-12.519 1.661l0.334-0.077c-17.491 4.435-30.676 18.822-33.278 36.643l-0.029 0.24c-0.519-1.583-0.928-2.73-1.229-3.849-4.635-19.993-22.293-34.666-43.378-34.666-0.481 0-0.96 0.008-1.438 0.023l0.070-0.002q-31.997 0-63.966 0c-0.549-0.026-1.193-0.040-1.841-0.040-13.633 0-25.752 6.485-33.439 16.538l-0.074 0.101c-3.699 5.896-7.114 12.704-9.874 19.839l-0.282 0.828zM458.954 796.058h105.9l30.959-154.85h-167.846zM251.14 641.181c3.44 12.067 6.771 23.834 10.129 35.491q14.469 50.561 28.966 101.013c1.907 10.513 10.99 18.381 21.911 18.381 0.802 0 1.594-0.042 2.374-0.125l-0.097 0.008h99.512l-17.937-90.093q-6.033-30.249-12.067-60.499c-0.573-2.867-1.010-5.051-4.969-5.023-41.415 0.137-82.831 0-124.246 0-1.437 0.26-2.64 0.553-3.817 0.909l0.241-0.063zM610.119 796.14h99.512c0.633 0.064 1.369 0.101 2.113 0.101 10.788 0 19.778-7.696 21.78-17.897l0.023-0.14q19.111-66.478 38.221-133.010c0.328-1.147 0.491-2.348 0.874-4.232-1.884 0-3.522-0.218-5.16-0.218-40.378 0-80.756 0-121.107 0-4.041 0-5.624 1.119-6.416 5.214q-14.169 71.965-28.72 143.848c-0.519 1.884-0.737 3.904-1.119 6.334z" />
<glyph unicode="&#xe90e;" glyph-name="Group-1975" d="M0.056 732.889q0 82.678 0 165.3c-0.132 1.455-0.207 3.148-0.207 4.858 0 31.49 25.528 57.017 57.017 57.017 1.582 0 3.148-0.064 4.697-0.191l-0.204 0.013q166.033 0 332.065 0c1.503 0.14 3.249 0.22 5.015 0.22 31.583 0 57.187-25.603 57.187-57.187 0-1.526-0.060-3.039-0.177-4.535l0.012 0.198q0.338-165.976 0-331.953c0.127-1.434 0.2-3.102 0.2-4.787 0-31.708-25.704-57.412-57.412-57.412-1.519 0-3.025 0.059-4.514 0.175l0.197-0.012q-166.033-0.282-332.065 0c-1.382-0.118-2.991-0.186-4.616-0.186-31.708 0-57.412 25.704-57.412 57.412 0 1.972 0.099 3.921 0.294 5.842l-0.020-0.242q-0.113 82.791-0.056 165.469zM797.115 959.944q82.678 0 165.356 0c1.473 0.135 3.185 0.212 4.915 0.212 31.49 0 57.017-25.528 57.017-57.017 0-1.583-0.065-3.151-0.191-4.702l0.013 0.204q0-165.976 0-332.009c0.14-1.503 0.22-3.249 0.22-5.015 0-31.583-25.603-57.187-57.187-57.187-1.526 0-3.039 0.060-4.535 0.177l0.198-0.012q-166.033-0.282-332.065 0c-1.434-0.127-3.102-0.2-4.787-0.2-31.708 0-57.412 25.704-57.412 57.412 0 1.519 0.059 3.025 0.175 4.514l-0.012-0.197q-0.282 165.976 0 331.953c-0.118 1.382-0.186 2.991-0.186 4.616 0 31.708 25.704 57.412 57.412 57.412 1.972 0 3.921-0.099 5.842-0.294l-0.242 0.020zM0.056 164.013q0 82.678 0 165.356c-0.14 1.503-0.22 3.249-0.22 5.015 0 31.583 25.603 57.187 57.187 57.187 1.526 0 3.039-0.060 4.535-0.177l-0.198 0.012q166.033 0.282 332.065 0c1.434 0.127 3.102 0.2 4.787 0.2 31.708 0 57.412-25.704 57.412-57.412 0-1.519-0.059-3.025-0.175-4.514l0.012 0.197q0.282-165.976 0-331.953c0.119-1.387 0.188-3.001 0.188-4.63 0-31.614-25.629-57.243-57.243-57.243-1.575 0-3.134 0.064-4.677 0.188l0.203-0.013q-166.033 0-332.065 0c-1.454-0.132-3.145-0.207-4.854-0.207-31.521 0-57.074 25.553-57.074 57.074 0 1.561 0.063 3.108 0.186 4.638l-0.013-0.201q-0.169 83.129-0.056 166.484zM853.456 107.108v-113.696h-112.794v112.794h-113.414v114.091h112.061v112.456h114.147v-112.117h113.527v-113.527z" />
<glyph unicode="&#xe90f;" d="M0 556.373c3.2 1.067 2.688 4.267 3.499 6.528 8.635 25.382 32.261 43.316 60.075 43.316 0.39 0 0.779-0.004 1.167-0.011l-0.058 0.001c42.667 0.299 85.333 0 128 0 6.272 0 9.131 0.811 9.515 8.235 1.516 49.145 40.585 88.689 89.392 90.958l0.208 0.008c1.437 0.217 2.649 0.47 3.837 0.782l-0.253-0.056c-3.667 11.318-5.781 24.341-5.781 37.857 0 15.311 2.713 29.989 7.684 43.579l-0.282-0.881c3.826 15.259 17.42 26.38 33.612 26.38 2.588 0 5.11-0.284 7.536-0.823l-0.23 0.043c16.718-2.171 31.839-7.367 45.371-15.040l-0.614 0.32c2.901-1.579 5.675-3.285 8.747-5.077 4.267 10.027 8.533 20.011 13.099 29.653 16.074 32.285 38.109 59.341 64.889 80.699l0.477 0.367c10.018 8.786 23.231 14.145 37.696 14.145s27.678-5.36 37.761-14.201l-0.065 0.056c33.212-26.605 58.94-61.225 74.404-100.974l0.561-1.639c1.024-2.645 2.048-5.333 3.2-8.533 15.538 10.34 34.049 17.526 53.989 20.194l0.667 0.073c1.934 0.385 4.157 0.606 6.432 0.606 15.832 0 29.169-10.686 33.191-25.239l0.057-0.242c4.977-12.891 7.86-27.808 7.86-43.398 0-10.511-1.311-20.715-3.777-30.46l0.183 0.855c-0.683-2.816-1.237-5.717-1.92-8.832 34.164-0.727 63.822-19.344 80.057-46.831l0.242-0.443c7.816-11.897 12.557-26.427 12.799-42.049l0.001-0.063c0-7.979 2.219-10.453 10.496-10.368 40.619 0.469 81.067 0.256 121.856 0 1.614 0.144 3.491 0.225 5.388 0.225 35.629 0 64.512-28.883 64.512-64.512 0-1.897-0.082-3.774-0.242-5.629l0.017 0.241c0-55.808 0-111.616 0-167.424 0.123-1.428 0.193-3.091 0.193-4.77 0-25.833-16.624-47.783-39.758-55.736l-0.414-0.124c-6.357-2.432-4.907-6.869-4.907-11.179q0-150.101 0-300.203c0.17-1.302 0.268-2.807 0.268-4.335 0-16.252-11.001-29.934-25.962-34.008l-0.247-0.057c-3.25-0.76-6.981-1.196-10.814-1.196-1.029 0-2.051 0.031-3.064 0.093l0.139-0.007h-846.080c-1.215-0.149-2.622-0.234-4.048-0.234-17.337 0-31.747 12.534-34.662 29.035l-0.031 0.212c-1.664 12.245 1.664 17.067 13.995 20.779 0.081 0.002 0.176 0.003 0.271 0.003 6.914 0 12.681-4.909 14.007-11.431l0.016-0.092c1.365-7.893 6.016-8.533 12.8-8.533 39.936 0 79.915 0 119.851 0h718.165c15.36 0 15.36 0 15.36 14.848 0 19.797-0.512 39.637 0.213 59.435 0.341 9.6-1.707 12.8-12.245 12.8q-420.48-0.427-841.003 0c-9.301 0-12.8-1.877-12.16-11.776 0.768-13.227-3.029-17.28-15.189-20.181-12.245 3.413-14.464 6.485-14.507 20.693q0 116.139 0 232.235c0 7.296-0.981 11.477-9.131 14.251-14.788 5.58-26.245 17.065-31.665 31.502l-0.122 0.37c-1.237 2.859-0.811 6.571-4.267 8.533zM154.581 282.837c5.291 0 10.581 0 15.787-0.555 7.296-0.853 8.533 2.389 8.533 9.045-0.341 23.125 0 46.208 0 69.333 0.107 0.955 0.168 2.062 0.168 3.183 0 16.294-12.865 29.584-28.991 30.266l-0.062 0.002c-18.048 0.384-29.867-11.989-30.976-32.469-0.236-22.302-13.598-41.427-32.716-50.035l-0.35-0.141c-6.879-2.306-11.748-8.693-11.748-16.217 0-1.070 0.098-2.116 0.287-3.131l-0.016 0.105c0-8.533 2.475-11.563 10.752-9.429zM564.864 705.237c2.882 0.247 6.237 0.388 9.625 0.388 7.715 0 15.26-0.731 22.568-2.129l-0.747 0.119c7.040-2.091 9.557 0.555 9.685 7.339 0.021 1.093 0.033 2.381 0.033 3.672 0 13.291-1.27 26.286-3.695 38.869l0.206-1.282c-9.258 52.095-36.81 96.533-75.647 127.373l-0.428 0.328c-4.736 4.713-11.266 7.626-18.477 7.626-6.338 0-12.151-2.251-16.682-5.997l0.044 0.035c-36.109-27.136-62.606-65.335-74.553-109.513l-0.327-1.42c-4.789-16.232-7.545-34.881-7.545-54.174 0-1.955 0.028-3.903 0.084-5.844l-0.007 0.285c0-4.267-0.384-9.557 7.381-8.021 6.485 1.614 13.931 2.54 21.592 2.54 25.712 0 48.989-10.428 65.831-27.286l0.001-0.001c2.688-2.56 4.267-3.029 7.211 0 14.219 13.992 32.678 23.713 53.277 27.060l0.569 0.076zM323.072 282.837c43.093 0 86.187-0.427 129.323-0.427 40.149 0 80.299 0.256 120.405 0.427h118.912c5.589 0 11.221 0 16.811-0.512s7.893 1.92 7.808 7.893c-0.299 24.448 0 48.896-0.256 73.301 0.004 0.184 0.006 0.401 0.006 0.619 0 16.498-13.375 29.873-29.873 29.873-16.281 0-29.52-13.024-29.866-29.222l-0.001-0.032c-0.18-4.989-0.716-9.717-1.586-14.328l0.092 0.589c-5.993-26.632-29.443-46.228-57.47-46.228-29.885 0-54.566 22.281-58.338 51.137l-0.032 0.297c-1.42 12.759-2.231 27.553-2.231 42.537 0 5.192 0.097 10.362 0.29 15.507l-0.022-0.742c0 0.034 0 0.075 0 0.115 0 16.495-13.372 29.867-29.867 29.867-5.76 0-11.139-1.631-15.701-4.455l0.128 0.074c-8.696-5.68-14.362-15.367-14.362-26.377 0-0.447 0.009-0.892 0.028-1.334l-0.002 0.063c-1.087-31.995-27.285-57.519-59.445-57.519-31.965 0-58.040 25.215-59.42 56.84l-0.004 0.125c0.052 0.665 0.081 1.439 0.081 2.221 0 16.618-13.362 30.115-29.927 30.333h-0.021c-0.035 0-0.076 0-0.117 0-16.495 0-29.867-13.372-29.867-29.867 0-0.931 0.043-1.853 0.126-2.762l-0.009 0.117c-0.299-35.328 0-70.656 0-106.027-0.085-23.68-0.085-23.68 24.405-22.101zM303.232 171.904c-4.267-12.416-6.869-14.251-21.333-14.251q-99.072 0-198.144 0c-6.016 0-9.941 0-9.472-8.064 0.392-5.184 0.616-11.227 0.616-17.323s-0.224-12.139-0.663-18.123l0.047 0.8c-0.768-9.387 2.688-11.051 11.392-11.051q382.933 0.341 765.909 0c27.093 0 54.144 0.213 81.067 0 5.547 0 7.381 1.493 7.211 7.168-0.298 5.328-0.468 11.561-0.468 17.835s0.17 12.508 0.505 18.697l-0.037-0.863c0.64 8.875-2.176 10.795-10.837 10.795-106.667-0.299-213.333 0-320 0q-125.824 0-251.733 0c-10.24 0-17.408 3.029-19.115 14.080 2.005 12.075 6.485 15.787 19.541 15.787h251.733q160 0 320 0c7.339 0 10.539 1.28 10.197 9.643-0.725 15.829-0.427 31.701 0 47.531 0 6.059-1.835 7.979-7.893 7.936q-45.568-0.384-91.136 0c-5.248 0-7.211-2.133-9.131-6.741-8.169-22.38-29.271-38.070-54.038-38.070-0.397 0-0.794 0.004-1.189 0.012l0.059-0.001c-0.549-0.019-1.194-0.030-1.842-0.030-24.161 0-44.796 15.1-52.981 36.378l-0.131 0.388c-1.429 4.8-5.803 8.24-10.979 8.24-0.506 0-1.005-0.033-1.494-0.097l0.058 0.006c-32.043-0.299-64 0-96.128 0h-306.176c-5.12 0-9.6 0.853-12.459-6.229-8.647-22.704-30.236-38.541-55.523-38.541-25.175 0-46.684 15.697-55.272 37.838l-0.138 0.404c-0.992 3.873-4.451 6.69-8.568 6.69-0.273 0-0.543-0.012-0.81-0.037l0.034 0.003q-46.080-0.299-92.16 0c-5.717 0-7.424-1.963-7.339-7.467 0.256-15.872 0.555-31.744 0-47.573-0.341-8.277 2.176-10.453 10.411-10.411 66.048 0.341 132.267 0 198.144 0 13.483 0.128 17.237-2.773 20.267-15.317zM708.181 591.573c-3.115-12.373-6.869-15.104-21.333-15.104h-612.523c-3.968 0-7.936 0-11.904 0-17.701-0.548-31.916-14.733-32.511-32.371l-0.001-0.056c-0.384-60.459-0.299-120.917 0-181.333 0.016-12.213 7.985-22.561 19.005-26.143l0.195-0.055c3.106-1.196 6.699-1.889 10.454-1.889 16.439 0 29.776 13.281 29.866 29.699v0.009c-0.131 1.484-0.206 3.21-0.206 4.953 0 32.99 26.744 59.733 59.733 59.733s59.733-26.744 59.733-59.733c0-1.623-0.065-3.231-0.192-4.821l0.013 0.21c0.683-31.36 0-62.763 0.341-94.123-0.040-0.592-0.063-1.284-0.063-1.98 0-16.74 13.278-30.378 29.877-30.957l0.053-0.001c16.639 0.273 30.022 13.825 30.022 30.503 0 1.083-0.056 2.153-0.167 3.208l0.011-0.132c0 44.587 0 89.173 0 133.803 0 4.608 0 9.259 0.427 13.867 2.678 30.634 28.207 54.487 59.307 54.487 32.828 0 59.448-26.576 59.52-59.387v-0.007c0-0.025 0-0.054 0-0.084 0-12.501 7.77-23.188 18.744-27.495l0.201-0.069c3.269-1.338 7.062-2.114 11.036-2.114 16.495 0 29.867 13.372 29.867 29.867 0 0.458-0.010 0.914-0.031 1.368l0.002-0.064c0.674 31.168 25.274 56.377 56.129 58.020l0.148 0.006c0.777 0.036 1.688 0.056 2.604 0.056 33.112 0 59.985-26.714 60.243-59.765v-0.025c-0.303-4.985-0.476-10.813-0.476-16.682 0-12.573 0.793-24.96 2.332-37.116l-0.149 1.445c1.488-14.927 13.982-26.488 29.176-26.488 0.498 0 0.993 0.012 1.486 0.037l-0.069-0.003c15.404 1.309 27.412 14.135 27.412 29.766 0 0.381-0.007 0.76-0.021 1.137l0.002-0.054c0.519 14.939 6.25 28.446 15.419 38.852l-0.059-0.068c10.797 12.238 26.516 19.917 44.029 19.917 6.879 0 13.481-1.185 19.613-3.361l-0.41 0.127c22.62-7.014 38.956-27.278 40.017-51.508l0.004-0.119c1.579-30.635 0.597-61.397 0.811-92.117-0.009-0.467-0.014-1.018-0.014-1.569 0-5.021 0.424-9.943 1.239-14.732l-0.072 0.515c2.745-13.695 14.673-23.867 28.978-23.867 12.62 0 23.391 7.918 27.616 19.057l0.068 0.203c1.454 4.445 2.293 9.56 2.293 14.871 0 0.953-0.027 1.899-0.080 2.838l0.006-0.13c0 60.8 0 121.557 0 182.357-0.035 0.793-0.056 1.723-0.056 2.658 0 15.395 5.483 29.51 14.604 40.497l-0.084-0.104c10.808 13.081 27.034 21.354 45.191 21.354 7.258 0 14.207-1.322 20.62-3.738l-0.403 0.133c23.176-8.447 39.425-30.294 39.425-55.935 0-0.135 0-0.271-0.001-0.406v0.021c0.341-29.867 0-60.117 0-90.197-0.030-0.675-0.048-1.466-0.048-2.262 0-4.067 0.453-8.028 1.31-11.835l-0.068 0.358c3.367-12.927 14.936-22.315 28.698-22.315 16.354 0 29.611 13.257 29.611 29.611 0 0.435-0.009 0.869-0.028 1.299l0.002-0.061q0 85.333 0 170.667c0.264 1.618 0.415 3.484 0.415 5.384 0 19.417-15.74 35.157-35.157 35.157-1.848 0-3.662-0.143-5.433-0.417l0.197 0.025h-180.352c-14.123 0-17.067 2.261-21.632 15.275 4.267 13.269 6.613 14.592 23.893 14.592 18.261 0 18.987 0.981 14.592 18.901 0 0.64-0.299 1.28-0.469 1.92-7.612 28.176-32.944 48.567-63.039 48.567-3.35 0-6.641-0.253-9.856-0.74l0.361 0.045c-30.32-4.708-53.663-29.318-56.387-59.862l-0.018-0.255c-0.512-7.040 1.707-9.301 8.533-8.875 9.557 0.512 19.115 0 28.672 0 12.885-0.299 16.171-2.816 19.157-14.763zM835.925 375.381c0-27.392 0.299-54.784 0-82.133 0-8.32 1.451-11.392 10.624-11.179 27.691 0.683 55.467 0 83.115 0.384 3.584 0 10.453-2.901 10.112 3.712-0.384 7.552 5.845 17.451-5.333 22.485-22.845 9.035-38.71 30.929-38.71 56.528 0 1.203 0.035 2.397 0.104 3.582l-0.008-0.164c0 30.336 0 60.715 0 91.051 0 16.495-13.372 29.867-29.867 29.867s-29.867-13.372-29.867-29.867v0c-0.341-28.117-0.128-56.149-0.171-84.181zM566.869 606.165v0c15.829 0 31.659 0.213 47.445 0 5.76 0 8.235 1.152 8.192 7.552-0.007 0.368-0.011 0.802-0.011 1.236 0 9.637 2.013 18.804 5.642 27.104l-0.17-0.436c0.839 1.5 1.334 3.291 1.334 5.197 0 3.539-1.703 6.681-4.335 8.649l-0.028 0.020c-12.004 12.323-28.759 19.967-47.299 19.967-34.877 0-63.436-27.051-65.841-61.316l-0.012-0.209c-0.768-6.144 1.536-8.064 7.595-7.936 15.829 0.469 31.659 0.256 47.488 0.256zM286.080 606.165v0c15.531 0 31.061 0.256 46.549 0 6.101 0 9.088 1.408 9.259 7.979 0.151 10.801 2.363 21.044 6.259 30.41l-0.2-0.544c0.439 0.967 0.696 2.096 0.696 3.285 0 2.252-0.919 4.29-2.402 5.759l-0.001 0.001c-12.354 13.811-30.229 22.462-50.124 22.462-7.242 0-14.216-1.146-20.751-3.267l0.475 0.133c-24.991-8.764-42.881-31.485-44.408-58.579l-0.008-0.173c0-6.443 2.347-7.765 8.064-7.637 15.531 0.427 31.061 0.256 46.592 0.256zM426.88 606.165v0c15.829 0 31.616 0 47.445 0 5.248 0 7.552 1.152 7.765 6.997 0.123 10.798 2.338 21.045 6.257 30.401l-0.199-0.535c0.633 1.197 1.005 2.617 1.005 4.123 0 2.58-1.090 4.904-2.835 6.539l-0.005 0.005c-12.299 13.498-29.951 21.935-49.574 21.935-7.115 0-13.971-1.109-20.405-3.164l0.474 0.131c-24.42-8.293-42.153-29.907-44.651-55.969l-0.021-0.266c-0.555-7.424 0.853-10.752 9.259-10.368 15.061 0.725 30.251 0.256 45.397 0.256zM695.68 741.461c0.002 0.254 0.003 0.554 0.003 0.854 0 12.419-2.111 24.345-5.993 35.439l0.229-0.752c-0.586 3.516-3.606 6.163-7.244 6.163-0.812 0-1.593-0.132-2.323-0.375l0.052 0.015c-15.187-2.555-28.76-7.844-40.785-15.375l0.465 0.271c-4.838-2.396-8.105-7.299-8.105-12.965 0-1.462 0.218-2.874 0.622-4.204l-0.027 0.102c2.147-8.579 3.378-18.428 3.378-28.564 0-7.212-0.624-14.279-1.82-21.149l0.105 0.732c-0.583-1.756-0.92-3.778-0.92-5.879 0-7.258 4.018-13.577 9.952-16.855l0.099-0.050c3.627-2.603 5.589-3.456 8.875 0 5.163 6.368 11.813 11.331 19.433 14.392l0.322 0.114c14.464 4.267 17.92 16 20.907 28.203 1.734 5.939 2.731 12.761 2.731 19.816 0 0.054 0 0.107 0 0.161v-0.008zM382.72 756.267c1.237 4.011-1.408 6.699-4.907 9.088-12.047 8.601-26.467 14.708-42.083 17.244l-0.584 0.078c-6.4 1.024-8.533-1.195-10.667-6.827-3.471-9.528-5.478-20.527-5.478-31.994 0-12.463 2.371-24.373 6.686-35.303l-0.227 0.652c1.773-6.075 6.216-10.854 11.939-13.053l0.136-0.046c8.851-3.974 16.457-9.011 23.107-15.079l-0.067 0.061c2.389-1.92 4.608-7.68 8.533-3.84s14.123 6.869 12.8 13.653c-1.612 9.193-2.534 19.779-2.534 30.58 0 12.334 1.202 24.386 3.495 36.048l-0.193-1.177z" />
<glyph unicode="&#xe910;" d="M59.392 42.752c12.16 2.901 15.957 6.955 15.189 20.181-0.597 9.899 2.901 11.776 12.16 11.776q420.48-0.469 841.003 0c10.539 0 12.587-3.115 12.245-12.8-0.725-19.797 0-39.595-0.213-59.435 0-14.848 0-14.848-15.36-14.848h-718.165c-39.936 0-79.915 0-119.851 0-6.656 0-11.307 0.768-12.8 8.533-1.341 6.614-7.109 11.523-14.022 11.523-0.095 0-0.19-0.001-0.285-0.003h0.014q0.085 17.493 0.085 35.072z" />
<glyph unicode="&#xe911;" d="M743.125 591.829c4.267-13.013 7.509-15.232 21.632-15.275h180.352c1.574 0.25 3.388 0.392 5.236 0.392 19.417 0 35.157-15.74 35.157-35.157 0-1.901-0.151-3.766-0.441-5.585l0.026 0.2q0-85.333 0-170.667c0.016-0.369 0.026-0.803 0.026-1.238 0-16.354-13.257-29.611-29.611-29.611-13.762 0-25.331 9.388-28.652 22.109l-0.046 0.206c-0.79 3.45-1.242 7.413-1.242 11.481 0 0.794 0.017 1.584 0.051 2.37l-0.004-0.112c0 29.867 0 60.117 0 90.197 0.001 0.119 0.001 0.259 0.001 0.4 0 25.626-16.229 47.461-38.97 55.788l-0.412 0.132c-6.010 2.283-12.959 3.605-20.217 3.605-18.158 0-34.383-8.273-45.112-21.255l-0.079-0.099c-9.036-10.883-14.52-24.998-14.52-40.393 0-0.935 0.020-1.865 0.060-2.79l-0.005 0.132c0-60.8 0-121.557 0-182.357 0.048-0.811 0.075-1.759 0.075-2.714 0-5.309-0.839-10.422-2.391-15.214l0.098 0.349c-4.293-11.342-15.063-19.259-27.683-19.259-14.305 0-26.234 10.173-28.947 23.679l-0.032 0.189c-0.742 4.274-1.166 9.196-1.166 14.217 0 0.552 0.005 1.102 0.015 1.652l-0.001-0.082c-0.256 30.72 0.768 61.483-0.811 92.117-1.079 24.344-17.409 44.602-39.621 51.519l-0.4 0.107c-5.722 2.050-12.324 3.234-19.203 3.234-17.513 0-33.232-7.679-43.974-19.853l-0.055-0.064c-9.11-10.338-14.841-23.845-15.357-38.678l-0.003-0.106c0.012-0.323 0.020-0.702 0.020-1.082 0-15.631-12.007-28.457-27.301-29.758l-0.11-0.008c-0.423-0.022-0.918-0.034-1.416-0.034-15.194 0-27.688 11.56-29.166 26.365l-0.010 0.122c-1.389 10.71-2.182 23.098-2.182 35.672 0 5.868 0.173 11.696 0.513 17.478l-0.038-0.798c-0.258 33.076-27.131 59.79-60.244 59.79-0.916 0-1.827-0.020-2.733-0.061l0.129 0.005c-31.003-1.649-55.603-26.859-56.276-57.962l-0.001-0.065c0.018-0.389 0.028-0.845 0.028-1.303 0-16.495-13.372-29.867-29.867-29.867-3.975 0-7.768 0.776-11.236 2.186l0.2-0.072c-11.174 4.376-18.944 15.063-18.944 27.564 0 0.029 0 0.059 0 0.088v-0.005c-0.072 32.818-26.692 59.393-59.52 59.393-31.1 0-56.629-23.853-59.291-54.262l-0.016-0.225c-0.384-4.608-0.427-9.259-0.427-13.867 0-44.587 0-89.173 0-133.803 0.099-0.922 0.155-1.993 0.155-3.076 0-16.678-13.383-30.23-29.997-30.502h-0.026c-16.652 0.58-29.93 14.219-29.93 30.958 0 0.697 0.023 1.388 0.068 2.073l-0.005-0.093c-0.427 31.36 0.341 62.763-0.341 94.123 0.114 1.381 0.178 2.989 0.178 4.612 0 32.99-26.744 59.733-59.733 59.733s-59.733-26.744-59.733-59.733c0-1.743 0.075-3.47 0.221-5.175l-0.015 0.222c-0.090-16.426-13.427-29.708-29.866-29.708-3.755 0-7.348 0.693-10.659 1.958l0.205-0.069c-11.215 3.637-19.184 13.984-19.2 26.195v0.002c-0.213 60.459-0.341 120.917 0 181.333 0.596 17.694 14.81 31.879 32.461 32.425l0.051 0.001c3.968 0.213 7.936 0 11.904 0h612.053c14.507 0 18.304 2.688 21.333 15.104z" />
<glyph unicode="&#xe912;" d="M303.232 171.947c-3.029 12.501-6.827 15.531-20.011 15.531-66.048 0-132.267 0-198.144 0-8.235 0-10.752 2.133-10.411 10.411 0.64 15.829 0.341 31.701 0 47.573 0 5.504 1.621 7.552 7.339 7.467q46.080-0.384 92.16 0c0.232 0.022 0.503 0.034 0.776 0.034 4.117 0 7.576-2.817 8.555-6.629l0.013-0.061c8.727-22.545 30.235-38.243 55.41-38.243 25.287 0 46.875 15.838 55.387 38.135l0.136 0.407c2.859 7.083 7.339 6.229 12.459 6.229h306.176c32.043 0 64-0.299 96.128 0 0.431 0.058 0.93 0.091 1.437 0.091 5.177 0 9.55-3.44 10.959-8.159l0.021-0.081c8.317-21.666 28.951-36.766 53.113-36.766 0.648 0 1.293 0.011 1.936 0.032l-0.094-0.002c0.336-0.007 0.733-0.011 1.13-0.011 24.767 0 45.869 15.689 53.91 37.671l0.128 0.399c1.963 4.608 3.883 6.784 9.131 6.741q45.568-0.341 91.136 0c6.059 0 8.021-1.877 7.893-7.936-0.341-15.829-0.597-31.744 0-47.531 0.384-8.533-2.816-9.643-10.197-9.643q-160 0.213-320 0h-251.733c-13.056 0-17.536-3.712-19.541-15.787z" />
<glyph unicode="&#xe913;" d="M303.275 171.947l35.328-0.256c1.707-11.051 8.875-14.080 19.115-14.080q125.824 0.213 251.733 0c106.667 0 213.333 0 320 0 8.533 0 11.477-1.92 10.837-10.795-0.299-5.327-0.469-11.561-0.469-17.835s0.17-12.507 0.506-18.696l-0.037 0.862c0-5.675-1.621-7.211-7.211-7.168-27.093 0.213-54.144 0-81.067 0q-382.933 0-765.909 0c-8.533 0-12.117 1.664-11.392 11.051 0.392 5.183 0.615 11.227 0.615 17.323s-0.223 12.139-0.662 18.123l0.047-0.8c-0.512 8.021 3.456 8.107 9.472 8.064q99.072-0.213 198.144 0c14.037-0.043 16.683 1.792 20.949 14.208z" />
<glyph unicode="&#xe914;" d="M622.336 282.837h-49.707c-0.942 0.746-2.006 1.414-3.141 1.961l-0.102 0.044c-33.196 13.145-56.247 44.968-56.247 82.174 0 0.526 0.005 1.050 0.014 1.574l-0.001-0.079c0 13.184 0 26.411 0 39.595 0 4.821 0 10.453-6.101 10.453-5.12 0-5.717-5.248-5.803-9.813-2.083-44.1-38.344-79.066-82.772-79.066-6.829 0-13.464 0.826-19.812 2.384l0.568-0.118c-37.402 8.098-65.203 40.361-66.386 79.319l-0.003 0.126c-0.299 3.243 0.299 7.552-4.267 7.296-3.541 0-5.333-3.499-5.504-7.168 0-2.304 0-4.608 0-6.912q0-60.843 0-121.728c-24.491-1.749-24.491-1.749-24.491 22.229 0 35.328 0 70.699 0 106.027-0.075 0.793-0.117 1.714-0.117 2.646 0 16.495 13.372 29.867 29.867 29.867 0.041 0 0.083 0 0.124 0h-0.006c16.586-0.219 29.948-13.716 29.948-30.334 0-0.782-0.030-1.556-0.088-2.323l0.006 0.102c1.384-31.749 27.46-56.965 59.424-56.965 32.16 0 58.358 25.524 59.442 57.42l0.003 0.099c-0.016 0.379-0.026 0.824-0.026 1.271 0 11.010 5.666 20.697 14.242 26.303l0.12 0.074c4.434 2.751 9.813 4.382 15.574 4.382 16.495 0 29.867-13.372 29.867-29.867 0-0.040 0-0.081 0-0.121v0.006c-0.171-4.404-0.268-9.575-0.268-14.769 0-14.982 0.81-29.774 2.39-44.336l-0.159 1.804c3.804-29.153 28.485-51.434 58.37-51.434 28.027 0 51.477 19.596 57.396 45.835l0.075 0.393c0.777 4.021 1.312 8.749 1.488 13.57l0.005 0.169c0.347 16.23 13.586 29.254 29.867 29.254 16.498 0 29.873-13.375 29.873-29.873 0-0.218-0.002-0.435-0.007-0.651l0.001 0.032c0.384-24.448 0-48.896 0.256-73.301 0-5.973-1.621-8.533-7.808-7.893s-11.179 0.384-16.811 0.512q0 38.656 0 77.312c0 4.267-1.152 8.789-5.76 8.917s-3.755-5.035-4.267-8.533c-2.074-25.773-14.768-48.224-33.65-63.219l-0.184-0.141c-7.808-6.187-17.323-8.96-25.429-14.507z" />
<glyph unicode="&#xe915;" d="M564.864 705.28c-21.17-3.377-39.646-13.056-53.905-27.024l0.017 0.016c-2.816-2.859-4.523-2.389-7.211 0-16.843 16.858-40.119 27.286-65.832 27.286-7.662 0-15.107-0.926-22.23-2.672l0.638 0.132c-7.765-1.579-7.253 3.712-7.381 8.021-0.049 1.653-0.078 3.597-0.078 5.548 0 19.296 2.755 37.949 7.894 55.587l-0.35-1.402c12.274 45.598 38.771 83.798 74.36 110.559l0.52 0.375c5.035-4.693 10.368-9.088 14.933-14.165 2.432-2.688 7.168-5.035 4.48-10.24-3.144-0.224-6.057-0.709-8.871-1.44l0.337 0.074c-5.62-2.114-9.547-7.444-9.547-13.692 0-5.825 3.413-10.853 8.349-13.193l0.089-0.038c1.895-0.938 4.127-1.487 6.487-1.487 3.887 0 7.427 1.489 10.078 3.929l-0.011-0.010c3.131 3.217 5.107 7.573 5.247 12.389l0.001 0.027c12.12-13.074 21.202-29.139 26.016-46.957l0.181-0.787c-2.83 3.775-7.295 6.191-12.323 6.191-3.649 0-7.001-1.273-9.637-3.398l0.029 0.023c-3.602-2.43-5.94-6.495-5.94-11.107 0-2.375 0.62-4.606 1.708-6.539l-0.035 0.067c2.015-5.242 7.009-8.896 12.857-8.896 1.504 0 2.952 0.242 4.307 0.689l-0.097-0.028c9.643 2.56 12.117 10.069 11.179 19.2 5.659-13.050 9.844-28.193 11.82-44.023l0.084-0.82c-7.090-1.121-12.446-7.188-12.446-14.507 0-0.33 0.011-0.658 0.032-0.983l-0.002 0.044c0.256-9.344 6.656-12.8 14.421-14.933zM522.197 732.971c-0.156 8.129-6.782 14.659-14.933 14.659-8.249 0-14.936-6.687-14.936-14.936 0-0.098 0.001-0.195 0.003-0.292v0.015c0.156-8.129 6.782-14.659 14.933-14.659 8.249 0 14.936 6.687 14.936 14.936 0 0.098-0.001 0.195-0.003 0.292v-0.015zM464.256 732.288c0.010 0.197 0.015 0.428 0.015 0.66 0 7.776-6.304 14.080-14.080 14.080-0.261 0-0.52-0.007-0.777-0.021l0.036 0.002c-0.021 0-0.045 0-0.070 0-7.885 0-14.335-6.147-14.819-13.91l-0.002-0.042c0-0.009 0-0.020 0-0.031 0-8.256 6.424-15.011 14.546-15.54l0.046-0.002c0.089-0.002 0.194-0.003 0.299-0.003 8.195 0 14.844 6.62 14.89 14.804v0.004zM493.397 787.413c-0.166 8.166-6.825 14.722-15.016 14.722-0.091 0-0.182-0.001-0.273-0.002h0.014c-8.247 0-14.933-6.686-14.933-14.933s6.686-14.933 14.933-14.933v0c0.089-0.002 0.194-0.003 0.299-0.003 8.342 0 15.104 6.762 15.104 15.104 0 0.001 0 0.002 0 0.003v0z" />
<glyph unicode="&#xe916;" d="M323.072 282.837q0 60.843 0 121.728c0 2.304 0 4.608 0 6.912 0 3.669 1.963 6.997 5.504 7.168 4.693 0.213 4.267-4.267 4.267-7.296 1.186-39.084 28.988-71.347 65.837-79.345l0.552-0.1c5.78-1.44 12.416-2.266 19.244-2.266 44.428 0 80.688 34.966 82.765 78.879l0.007 0.186c0 4.565 0.64 9.813 5.803 9.813 5.931 0 6.144-5.675 6.101-10.453 0-13.184 0-26.411 0-39.595-0.008-0.445-0.013-0.97-0.013-1.495 0-37.206 23.051-69.029 55.651-81.965l0.596-0.209c1.236-0.591 2.301-1.259 3.278-2.033l-0.036 0.027c-40.149 0-80.299-0.427-120.405-0.427-42.923 0.043-86.016 0.341-129.152 0.469z" />
<glyph unicode="&#xe917;" d="M835.925 375.467c0 28.032 0 56.064 0 84.139 0 16.495 13.372 29.867 29.867 29.867s29.867-13.372 29.867-29.867v0c0.256-30.336 0-60.715 0-91.051-0.061-1.022-0.096-2.216-0.096-3.418 0-25.599 15.865-47.493 38.3-56.385l0.41-0.143c11.179-5.035 4.949-14.933 5.333-22.485 0.341-6.613-6.528-3.669-10.112-3.712-27.691-0.256-55.467 0.299-83.115-0.384-9.173-0.213-10.795 2.859-10.624 11.179 0.469 27.477 0.171 54.869 0.171 82.261z" />
<glyph unicode="&#xe918;" d="M742.827 591.787h-34.816c-3.157 11.947-6.272 14.464-18.603 14.592-9.557 0-19.157 0.427-28.672 0-6.955-0.384-9.173 1.835-8.533 8.875 2.846 30.734 26.199 55.251 56.119 59.857l0.372 0.047c2.853 0.442 6.145 0.695 9.495 0.695 30.095 0 55.427-20.391 62.933-48.111l0.105-0.457c0-0.64 0.299-1.28 0.469-1.92 4.267-17.963 3.712-18.901-14.592-18.901-17.536-0.085-19.669-1.408-24.277-14.677z" />
<glyph unicode="&#xe919;" d="M566.869 606.208c-15.829 0-31.659 0.213-47.445 0-6.101 0-8.533 1.749-7.595 7.893 2.417 34.474 30.976 61.524 65.853 61.524 18.54 0 35.295-7.644 47.285-19.953l0.014-0.014c2.66-1.989 4.363-5.13 4.363-8.669 0-1.907-0.494-3.698-1.362-5.252l0.028 0.055c-3.459-7.863-5.473-17.030-5.473-26.668 0-0.435 0.004-0.868 0.012-1.301l-0.001 0.065c0-6.4-2.475-7.68-8.192-7.552-15.829 0.341-31.659 0-47.445 0z" />
<glyph unicode="&#xe91a;" d="M286.080 606.251c-15.531 0-31.061 0-46.592 0-5.717 0-8.149 1.195-8.064 7.637 1.535 27.267 19.425 49.988 43.954 58.611l0.462 0.141c6.060 1.988 13.034 3.134 20.276 3.134 19.895 0 37.77-8.651 50.067-22.397l0.057-0.064c1.484-1.47 2.402-3.508 2.402-5.76 0-1.189-0.256-2.319-0.716-3.336l0.021 0.051c-3.696-8.823-5.908-19.066-6.058-29.808l-0.001-0.059c0-6.571-3.157-8.107-9.259-7.979-15.531 0.384-31.061 0-46.549 0z" />
<glyph unicode="&#xe91b;" d="M426.795 606.251c-15.147 0-30.336 0.469-45.44 0-8.533-0.384-9.813 2.987-9.259 10.368 2.519 26.328 20.252 47.942 44.21 56.098l0.462 0.137c5.959 1.924 12.815 3.034 19.93 3.034 19.622 0 37.274-8.437 49.526-21.882l0.048-0.053c1.75-1.639 2.84-3.964 2.84-6.544 0-1.506-0.372-2.926-1.028-4.172l0.024 0.049c-3.716-8.822-5.93-19.068-6.058-29.817v-0.050c0-5.845-2.517-7.083-7.765-6.997-15.829 0.256-31.616 0-47.445 0z" />
<glyph unicode="&#xe91c;" d="M510.763 857.173c2.645 5.205-2.048 7.552-4.48 10.24-4.565 5.077-9.899 9.472-14.933 14.165 4.487 3.711 10.3 5.962 16.638 5.962 7.211 0 13.741-2.913 18.478-7.627l-0.001 0.001c39.261-31.171 66.813-75.607 75.888-126.443l0.186-1.258c2.219-11.302 3.489-24.298 3.489-37.59 0-1.29-0.012-2.577-0.036-3.861l0.003 0.193c0-6.827-2.645-9.429-9.685-7.339-6.561 1.278-14.105 2.010-21.821 2.010-3.388 0-6.742-0.141-10.059-0.417l0.434 0.029q0 5.845 0 11.691c8.875 1.963 15.701 6.528 15.019 16.427s-7.595 13.867-17.067 13.952c-2.057 16.664-6.242 31.823-12.321 45.976l0.417-1.090-2.005 3.755c-4.995 18.605-14.078 34.67-26.264 47.817l0.066-0.073c-1.679 6.187-6.084 11.097-11.813 13.434l-0.134 0.048z" />
<glyph unicode="&#xe91d;" d="M85.163 282.837c-8.277-2.176-10.667 0.939-10.752 9.429-0.172 0.91-0.27 1.956-0.27 3.026 0 7.524 4.869 13.911 11.627 16.182l0.12 0.035c19.469 8.749 32.831 27.874 33.066 50.146v0.030c1.237 20.48 12.8 32.853 30.976 32.469 16.188-0.684 29.053-13.974 29.053-30.268 0-1.121-0.061-2.228-0.18-3.318l0.012 0.135c0-23.125 0-46.251 0-69.333 0-6.613-1.323-9.899-8.533-9.045-5.205 0.597-10.539 0.384-15.787 0.555q0 36.651 0 73.301c0.032 0.576 0.050 1.251 0.050 1.929 0 2.091-0.173 4.141-0.507 6.138l0.030-0.216c-0.331 2.746-2.497 4.897-5.221 5.203l-0.027 0.002c-3.456 0-3.84-2.816-4.267-5.547-0.555-3.883-1.451-7.723-1.92-11.648-2.9-20.059-12.631-37.442-26.716-50.064l-0.078-0.069c-8.904-7.186-18.981-13.549-29.759-18.678l-0.919-0.394z" />
<glyph unicode="&#xe91e;" d="M695.765 741.547c-0.027-7.076-1.054-13.902-2.946-20.358l0.13 0.518c-2.987-12.203-6.443-23.765-20.907-28.203-7.942-3.175-14.592-8.139-19.685-14.418l-0.070-0.089c-3.243-3.541-5.248-2.688-8.875 0-6.032 3.328-10.051 9.647-10.051 16.905 0 2.101 0.337 4.122 0.959 6.015l-0.039-0.136c1.091 6.138 1.714 13.205 1.714 20.417 0 10.136-1.232 19.985-3.553 29.405l0.175-0.841c-0.378 1.228-0.596 2.64-0.596 4.102 0 5.666 3.268 10.569 8.021 12.927l0.084 0.038c11.56 7.26 25.133 12.549 39.666 15.012l0.654 0.092c0.678 0.228 1.459 0.36 2.271 0.36 3.638 0 6.657-2.647 7.238-6.12l0.006-0.043c3.679-10.377 5.805-22.345 5.805-34.81 0-0.272-0.001-0.544-0.003-0.816v0.042z" />
<glyph unicode="&#xe91f;" d="M382.677 756.352c-2.11-10.508-3.318-22.588-3.318-34.95 0-10.742 0.912-21.272 2.663-31.515l-0.155 1.099c1.451-6.741-8.235-9.173-12.8-13.653s-6.101 1.92-8.533 3.84c-6.582 6.008-14.188 11.045-22.499 14.8l-0.541 0.219c-5.858 2.244-10.301 7.024-12.040 12.959l-0.035 0.14c-4.089 10.278-6.459 22.187-6.459 34.651 0 11.468 2.007 22.467 5.689 32.665l-0.211-0.67c1.963 5.589 4.267 7.808 10.667 6.827 16.2-2.615 30.619-8.721 42.976-17.532l-0.309 0.21c3.499-2.389 6.144-5.077 4.907-9.088z" />
<glyph unicode="&#xe920;" d="M85.163 282.837c11.729 5.517 21.836 11.881 31.056 19.301l-0.294-0.229c14.164 12.691 23.895 30.074 26.742 49.688l0.053 0.446c0.469 3.883 1.365 7.765 1.92 11.648 0.384 2.731 0.768 5.675 4.267 5.547 2.751-0.308 4.917-2.46 5.245-5.177l0.003-0.028c0.303-1.781 0.477-3.834 0.477-5.926 0-0.677-0.018-1.35-0.054-2.018l0.004 0.093q0-36.651 0-73.301z" />
<glyph unicode="&#xe921;" d="M622.336 282.837c8.107 5.547 17.664 8.533 25.6 14.421 19.066 15.136 31.76 37.587 33.814 63.043l0.021 0.317c0.427 3.371-1.024 8.533 4.267 8.533s5.76-4.565 5.76-8.917q0-38.656 0-77.312z" />
<glyph unicode="&#xe922;" d="M510.763 857.173c5.871-2.367 10.29-7.262 11.956-13.299l0.033-0.141c-0.141-4.843-2.117-9.199-5.252-12.42l0.004 0.004c-2.641-2.43-6.181-3.919-10.068-3.919-2.36 0-4.592 0.549-6.574 1.526l0.087-0.039c-5.024 2.378-8.438 7.405-8.438 13.231 0 6.248 3.926 11.578 9.446 13.659l0.101 0.033c2.533 0.668 5.507 1.154 8.557 1.357l0.147 0.008z" />
<glyph unicode="&#xe923;" d="M522.283 732.971c0.002-0.083 0.003-0.18 0.003-0.277 0-8.249-6.687-14.936-14.936-14.936-8.151 0-14.778 6.53-14.933 14.644v0.015c-0.002 0.083-0.003 0.18-0.003 0.277 0 8.249 6.687 14.936 14.936 14.936 8.151 0 14.778-6.53 14.933-14.644v-0.015z" />
<glyph unicode="&#xe924;" d="M464.299 732.288c-0.072-8.169-6.711-14.764-14.89-14.764-0.075 0-0.15 0.001-0.225 0.002h0.011c-8.168 0.531-14.592 7.287-14.592 15.542 0 0.011 0 0.022 0 0.033v-0.002c0.486 7.806 6.936 13.952 14.821 13.952 0.025 0 0.049 0 0.073 0h-0.004c0.222 0.012 0.482 0.020 0.743 0.020 7.776 0 14.080-6.304 14.080-14.080 0-0.247-0.006-0.493-0.019-0.736l0.001 0.034z" />
<glyph unicode="&#xe925;" d="M562.859 747.349c9.429 0 16.341-4.267 17.067-13.952s-6.144-14.464-15.019-16.427c-7.765 2.091-14.165 5.589-14.421 14.933-0.018 0.272-0.028 0.589-0.028 0.909 0 7.311 5.33 13.377 12.316 14.525l0.085 0.012z" />
<glyph unicode="&#xe926;" d="M493.483 787.413c-0.096-8.268-6.821-14.933-15.103-14.933 0 0-0.001 0-0.001 0v0c-8.247 0-14.933 6.686-14.933 14.933s6.686 14.933 14.933 14.933v0c0.025 0 0.055 0 0.086 0 8.265 0 14.97-6.676 15.018-14.929v-0.005z" />
<glyph unicode="&#xe927;" d="M548.992 795.989l2.005-3.755c0.939-9.131-1.493-16.64-11.179-19.2-1.258-0.419-2.706-0.661-4.21-0.661-5.847 0-10.842 3.653-12.825 8.802l-0.032 0.094c-1.053 1.866-1.673 4.096-1.673 6.472 0 4.612 2.337 8.677 5.892 11.077l0.047 0.030c2.607 2.106 5.962 3.381 9.614 3.381 5.050 0 9.53-2.437 12.33-6.199l0.029-0.041z" />
<glyph unicode="&#xe928;" d="M425.861 898.56c4.299 0.147 9.353 0.231 14.426 0.231 57.070 0 111.664-10.603 161.919-29.946l-3.084 1.044c29.761-9.649 54.405-28.184 71.468-52.439l0.294-0.44c2.048-3.441 5.857-3.768 9.134-4.669 35.439-10.295 65.898-28.3 90.671-52.165l-0.067 0.064c3.578-2.846 6.567-6.252 8.876-10.111l0.094-0.17c8.492-14.655 21.158-26.080 36.363-32.816l0.501-0.198c39.724-20.257 69.939-54.396 84.622-95.877l0.37-1.198c3.665-11.128 5.778-23.937 5.778-37.239 0-2.75-0.090-5.48-0.268-8.185l0.019 0.368c-0.178-3.708-0.279-8.055-0.279-12.425 0-41.268 9.020-80.429 25.196-115.62l-0.71 1.723q41.574-99.205 78.561-200.253c4.117-9.178 6.514-19.894 6.514-31.169 0-23.162-10.119-43.961-26.177-58.218l-0.080-0.070c-46.444-45.046-97.325-86.077-151.744-122.205l-3.904-2.437c-25.606-18.973-54.695-36.010-85.563-49.778l-2.952-1.176c-9.383-3.845-20.274-6.077-31.685-6.077-24.769 0-47.082 10.514-62.72 27.323l-0.048 0.052c-9.871 11.018-19.661 22.159-29.164 33.505-2.664 3.248-6.678 5.304-11.172 5.304-1.299 0-2.559-0.172-3.756-0.494l0.101 0.023c-12.537-2.095-26.982-3.292-41.707-3.292-27.224 0-53.493 4.092-78.224 11.696l1.883-0.498c-10.65 3.564-21.258 7.373-31.99 10.609-9.291 3.072-16.835 9.3-21.528 17.387l-0.099 0.185c-8.563 13.126-17.239 28.546-24.946 44.522l-1.105 2.541c-2.417 5.161-5.284 6.922-10.445 4.424-0.287 0-0.696 0-1.024-0.205-14.758-5.782-31.846-9.133-49.716-9.133-24.738 0-47.976 6.422-68.138 17.689l0.709-0.364c-56.156 26.092-111.862 53.002-166.42 82.207-15.83 9.318-29.065 18.137-41.8 27.592l1.249-0.886c-4.143 3.156-7.157 7.608-8.445 12.744l-0.034 0.159c-31.756 91.091-54.075 196.772-62.523 306.339l-0.269 4.343c-1.874 12.661-2.944 27.275-2.944 42.14 0 27.884 3.765 54.888 10.815 80.533l-0.499-2.127c18.909 54.678 57.128 98.562 106.312 124.391l1.208 0.578c88.609 51.092 194.753 81.495 307.945 82.165l0.197 0.001zM410.829 694.579l2.54 2.212c-1.72 1.188-2.867 0.532-3.768-1.106l-2.376-1.843c-2.58-1.802-5.284-3.441-7.7-5.407-25.682-21.825-44.448-51.080-53-84.428l-0.248-1.138c-1.61-9.322-5.119-17.61-10.125-24.774l0.131 0.198c4.696 32.973 16.554 62.49 33.961 87.908l-0.456-0.705c26.181 29.542 55.794 55.158 88.445 76.514l1.667 1.023c0.41 0.328 1.188 0 1.72 0.246 2.785-2.171-3.236-5.079 0.737-7.209 32.005 20.564 69.18 36.746 108.883 46.497l2.528 0.525c-37.695-5.030-71.809-16.308-102.706-32.82l1.617 0.789c17.769 12.537 38.358 22.693 60.453 29.383l1.52 0.395c19.307 5.723 41.853 9.856 65.072 11.569l1.079 0.064c11.946 0.875 25.88 1.374 39.931 1.374 10.447 0 20.83-0.276 31.142-0.821l-1.441 0.061c-1.884 2.417-2.253 3.318-2.703 3.4-5.155 1.169-11.525 2.181-18.007 2.814l-0.671 0.053c-4.14 0.118-9.013 0.184-13.901 0.184-35.849 0-70.858-3.601-104.683-10.461l3.363 0.569c-43.161-9.291-81.388-24.554-116.096-45.13l1.776 0.975c-46.053-21.484-81.939-58.338-101.648-103.831l-0.507-1.313c-14.65-30.641-23.207-66.601-23.207-104.559 0-9.702 0.559-19.273 1.647-28.684l-0.108 1.147c2.615-19.758 9.902-37.433 20.712-52.397l-0.232 0.337c8.174-12.318 15.553-26.444 21.416-41.333l0.539-1.552q19.087-69.632 39.813-138.527c18.431-68.79 42.34-128.687 72.269-184.891l-2.268 4.667c11.387-20.111 28.672-22.528 47.964-27.73-21.832 38.461-23.675 43.704-18.391 52.552 6.636-13.148 13.804-25.6 19.333-38.707 4.846-11.686 16.164-19.756 29.366-19.756 0.866 0 1.723 0.035 2.572 0.103l-0.112-0.007c21.135-0.573 42.312-0.287 63.447 0 2.826 0 7.25-2.007 8.192 2.007s-2.499 6.431-5.652 8.192c-2.417 1.27-5.775 3.072-7.823 2.294-3.052-0.805-6.555-1.267-10.167-1.267-4.158 0-8.172 0.613-11.958 1.753l0.293-0.076c-23.137 2.428-43.602 12.308-59.317 27.161l0.048-0.045c-11.592 13.361-20.058 29.746-24.071 47.808l-0.136 0.73c-21.065 70.255-47.142 131.057-79.113 188.112l2.395-4.652c-6.589 11.288-11.658 24.402-14.483 38.33l-0.14 0.828c-3.89 27.741-10.319 52.691-19.201 76.444l0.81-2.47c-1.206 7.15-3.186 13.546-5.894 19.544l0.201-0.497c-9.908 25.533-17.139 55.183-20.353 86.027l-0.127 1.504c-0.226 3.103-0.355 6.722-0.355 10.372 0 32.972 10.507 63.49 28.355 88.389l-0.311-0.457c10.199 15.36 24.863 26.747 35.103 41.902zM521.421 655.667c-29.937-20.307-52.143-50.059-62.471-84.915l-0.28-1.101c-6.72-19.187-10.602-41.308-10.602-64.335 0-7.247 0.384-14.404 1.134-21.451l-0.076 0.877c0.785-30.66 12.010-58.555 30.235-80.409l-0.17 0.21c25.702-26.517 46.627-57.844 61.27-92.474l0.743-1.98c1.966-11.879 5.332-22.53 9.984-32.458l-0.318 0.755c7.422-21.877 17.291-40.863 29.572-58.004l-0.45 0.66c33.505-47.841 70.205-93.225 106.045-139.264 15.401-19.784 32.768-37.724 49.848-55.951 20.070-21.34 25.19-21.996 48.865-5.652 53.442 35.949 99.152 70.348 143.012 106.893l-2.765-2.24c2.089 1.761 6.062 3.031 4.096 7.332-3.213-1.561-5.896-3.101-8.466-4.799l0.274 0.17c-35.144-26.378-70.738-52.142-107.479-76.308-10.854-7.168-21.422-14.868-32.768-21.504-5.54-4.812-12.824-7.745-20.793-7.745-10.923 0-20.559 5.51-26.281 13.902l-0.071 0.11c-21.1 24.536-41.84 51.534-61.069 79.647l-2.050 3.174c-18.409 30.941-40.149 57.491-65.263 80.405l-0.273 0.245c-22.258 19.598-39.015 44.944-47.983 73.724l-0.309 1.151c-2.317 14.147-6.298 26.837-11.807 38.672l0.379-0.907c-5.73 20.435-15.005 38.219-27.226 53.551l0.234-0.303c-14.459 19.087-29.368 37.806-43.991 56.771-7.245 8.566-12.246 19.249-13.968 30.997l-0.041 0.338c-2.228 14.52-3.501 31.271-3.501 48.319 0 10.662 0.498 21.208 1.471 31.616l-0.101-1.332c2.691 31.32 14.093 59.545 31.743 82.762l-0.285-0.391c10.813 13.435 21.955 26.542 33.382 39.444l21.709 15.401-1.352 1.761zM506.921 354.939v0c-6.308 8.192-12.288 16.179-18.964 24.044-20.029 21.077-35.114 47.047-43.271 75.923l-0.311 1.286c-2.559 12.64-4.024 27.17-4.024 42.041 0 6.222 0.256 12.384 0.759 18.477l-0.053-0.799c1.131 28.911 8.573 55.838 20.977 79.78l-0.497-1.055c2.808 3.521 4.506 8.035 4.506 12.946 0 0.057 0 0.114-0.001 0.17v-0.009c-7.127-8.929-13.066-16.63-19.292-24.166-22.002-25.869-35.385-59.663-35.385-96.583 0-37.89 14.095-72.488 37.328-98.836l-0.141 0.163c8.192-9.134 14.828-19.456 22.2-29.245 1.76-5.989 4.571-11.186 8.251-15.638l-0.059 0.073c11.354-17.294 20.568-37.301 26.585-58.648l0.367-1.522c10.12-37.654 23.795-70.56 41.125-101.122l-1.107 2.122c39.959-69.261 84.713-129.145 135.62-183.166l-0.452 0.484c3.581-4.687 9.031-7.789 15.217-8.189l0.061-0.003c12.584 0.368 24.531 1.398 36.273 3.065l-1.703-0.198c0.189-0.002 0.412-0.003 0.635-0.003 9.096 0 17.722 2.009 25.46 5.607l-0.373-0.156c-8.995 3.712-16.758 8.265-23.778 13.727l0.226-0.17c-19.071 18.659-36.919 38.324-53.556 59.004l-1.003 1.289c-27.075 35.062-52.47 71.434-80.364 105.8-27.93 33.408-50.062 72.782-64.171 115.792l-0.71 2.501c-5.801 20.259-14.197 37.961-24.995 53.904l0.419-0.656zM298.025 392.827c7.209-47.35 13.271-94.904 24.166-141.599 5.703-29.651 12.644-55.11 21.264-79.781l-1.193 3.923c2.99-7.7 6.922-13.967 16.671-12.616 1.896-0.208 4.095-0.326 6.321-0.326 1.105 0 2.202 0.029 3.293 0.087l-0.152-0.006c18.309 2.294 23.634 10.24 17.49 26.993-15.834 43.512-31.727 98.629-44.342 154.985l-1.82 9.675c-4.020 27.099-12.352 51.52-24.338 73.675l0.582-1.176c-10.872 16.818-21.413 36.329-30.44 56.661l-1.099 2.772c-0.901 1.966-0.573 5.98-5.325 5.448 1.27-6.881 2.458-13.599 3.768-20.48q7.578-39.076 15.155-78.275zM331.653 181.268c-0.187 2.707-0.551 5.201-1.087 7.631l0.063-0.34c-23.388 82.78-32.768 168.223-47.882 252.559-6.5 45.413-16.512 85.999-30.074 124.922l1.402-4.622c-6.453 15.726-10.2 33.979-10.2 53.107 0 24.947 6.372 48.407 17.578 68.838l-0.374-0.745c12.943 25.395 27.116 50.135 42.271 74.179 17.607 28.456 41.54 51.432 69.936 67.412l0.966 0.5c28.994 13.816 62.766 22.884 98.375 25.229l0.83 0.044c26.82 4.459 57.723 7.007 89.222 7.007 0.673 0 1.346-0.001 2.018-0.003h-0.104c-9.669 2.097-20.776 3.298-32.164 3.298-10.031 0-19.844-0.932-29.357-2.714l0.982 0.153c-27.525-2.662-54.723-8.192-82.125-11.878-54.685-7.502-101.537-36.172-132.801-77.33l-0.36-0.494c-20.73-27.944-37.111-60.59-47.307-95.86l-0.534-2.157c-4.76-17.644-7.494-37.902-7.494-58.799 0-26.803 4.498-52.555 12.781-76.542l-0.495 1.647c4.096-15.196 10.732-29.614 13.885-45.056 7.086-34.693 10.691-69.878 15.524-104.94 7.25-52.306 15.278-104.571 26.952-156.14 1.362-15.62 5.134-30.019 10.953-43.317l-0.344 0.883c1.761-10.732 5.816-20.89 8.192-31.375 5.316-13.134 17.966-22.23 32.741-22.23 3.92 0 7.69 0.64 11.212 1.822l-0.249-0.072c8.602 2.908 16.753 7.25 25.436 9.994s6.963 8.192 5.038 14.746c-2.703 9.216-7.332 2.99-11.1 1.966-5.407-1.475-10.568-3.645-15.933-5.284-2.432-1.036-5.261-1.638-8.231-1.638-6.183 0-11.756 2.609-15.679 6.787l-0.011 0.011c-5.008 5.34-9.186 11.538-12.278 18.334l-0.174 0.426zM397.189 384.43c-0.041-0.903-0.064-1.961-0.064-3.025 0-14.493 4.286-27.984 11.66-39.276l-0.169 0.276c33.522-59.807 63.377-129.308 85.841-202.053l2.059-7.744c6.443-22.061 24.105-38.838 46.232-43.91l0.421-0.081c10.2-4.449 22.084-7.038 34.572-7.038 3.39 0 6.736 0.191 10.027 0.562l-0.404-0.037c-0.648 1.453-1.277 2.649-1.972 3.802l0.087-0.157c-43.965 60.706-78.507 131.625-99.593 208.122l-1.087 4.624c-5.105 21.83-15.717 40.68-30.294 55.649l0.025-0.026c-13.24 12.74-25.034 26.81-35.22 42.046l-0.579 0.921c-16.007 25.657-25.499 56.813-25.499 90.186 0 41.367 14.583 79.328 38.89 109.022l-0.243-0.306c19.441 23.99 39.944 45.415 62.070 65.050l0.558 0.486 8.765 5.734c63.433 44.746 142.334 71.518 227.487 71.518 8.287 0 16.515-0.254 24.677-0.753l-1.121 0.055c3.809-0.246 7.987-3.645 11.756 0l-1.147-1.147 0.655-0.532 0.287 1.638c-20.456 15.728-44.674 27.731-70.999 34.476l-1.377 0.299c-12.84 2.040-28.367 3.593-44.112 4.308l-0.944 0.034c-8.344 0.815-18.037 1.28-27.838 1.28-17.305 0-34.272-1.449-50.786-4.231l1.783 0.248c-53.374-11.832-99.894-35.97-138.16-69.334l0.37 0.316c-31.687-24.822-56.413-57.128-71.695-94.312l-0.558-1.534c-5.135-16.564-8.093-35.607-8.093-55.34 0-30.172 6.915-58.73 19.246-84.174l-0.503 1.151c9.276-23.959 17.863-53.032 24.21-82.932l0.694-3.903zM257.475 572.846c4.562-19.438 10.552-36.401 18.126-52.471l-0.677 1.598c0.42 32.541 5.571 63.724 14.794 93.104l-0.621-2.296c13.555 55.584 47.528 101.579 93.335 130.556l0.873 0.516c17.859 11.018 36.127 21.34 54.19 31.99 3.277 1.147 6.636 2.171 9.871 3.523 20.453 9.524 45.032 18.575 70.42 25.691l3.554 0.851c30.214 6.973 64.909 10.97 100.536 10.97 4.775 0 9.533-0.072 14.273-0.214l-0.695 0.017c1.151-0.255 2.472-0.401 3.828-0.401 3.468 0 6.713 0.956 9.486 2.618l-0.084-0.047c-24.036 19.804-55.14 31.813-89.048 31.813-0.993 0-1.984-0.010-2.973-0.031l0.148 0.002c-43.052-1.961-83.125-6.062-122.498-12.27l6.171 0.802c-44.988-5.156-84.1-26.926-111.673-58.922l-0.189-0.224c-26.847-33.621-49.931-72.018-67.582-113.294l-1.231-3.238c-6.16-14.303-9.742-30.953-9.742-48.439 0-15.181 2.7-29.732 7.646-43.197l-0.279 0.869zM20.89 610.693c-0.323-3.051-0.507-6.592-0.507-10.176 0-7.523 0.811-14.856 2.351-21.917l-0.124 0.677c0.113-16.734 1.598-33.038 4.349-48.908l-0.253 1.763c5.284-42.967 10.404-86.016 19.292-128.369 9.544-45.507 23.634-89.866 34.488-135.168 1.537-7.432 6.26-13.527 12.645-16.893l0.134-0.064c13.967-7.373 27.361-15.892 41.615-22.61 48.21-22.61 96.666-44.728 145.121-66.847 10.967-6.13 23.666-11.14 37.058-14.371l1.034-0.211c-7.229 13.996-12.909 30.229-16.201 47.312l-0.183 1.143c-1.802 9.626-3.277 19.333-5.489 28.672-14.95 65.29-22.979 131.727-32.317 197.96-4.409 37.846-12.138 72.155-23.053 105.009l1.058-3.674c-10.429 25.521-16.482 55.136-16.482 86.165 0 38.080 9.117 74.030 25.286 105.788l-0.612-1.325c19.879 44.795 50.742 81.644 89.254 108.19l0.858 0.559c23.23 13.747 50.131 24.752 78.654 31.586l1.996 0.404 113.91 12.288c-33.243 7.071-71.437 11.12-110.577 11.12-51.644 0-101.641-7.049-149.082-20.239l3.904 0.926c-50.606-11.321-95.345-29.207-136.172-53.060l2.233 1.205c-73.661-28.891-124.869-99.361-124.869-181.791 0-5.359 0.216-10.668 0.641-15.918l-0.045 0.691zM614.81 699.904c-1.845-0.044-3.599-0.371-5.241-0.938l0.121 0.036c-35.070-15.578-65.198-35.487-91.47-59.538l0.252 0.228c-17.81-15.956-32.363-35.131-42.818-56.665l-0.477-1.088c-9.030-23.977-14.257-51.691-14.257-80.627 0-6.915 0.299-13.76 0.883-20.523l-0.061 0.879c-0.003-0.295-0.005-0.644-0.005-0.993 0-23.674 8.181-45.438 21.871-62.617l-0.157 0.204c8.192-9.38 15.565-19.087 23.593-28.467 23.767-24.637 41.362-55.384 50.197-89.652l0.307-1.402c7.327-36.709 25.632-68.301 51.294-92.058l0.111-0.102c21.572-20.9 40.6-44.212 56.712-69.56l0.919-1.547c24.912-38.853 51.655-72.664 81.359-103.611l-0.217 0.228c2.466-3.174 6.283-5.197 10.573-5.197 2.658 0 5.135 0.777 7.216 2.116l-0.053-0.032c13.943 6.111 25.951 13.735 36.604 22.893l-0.19-0.16q65.823 43.827 128.451 92.078c18.178 12.698 34.068 26.508 48.379 41.813l0.158 0.171c4.519 3.848 7.366 9.543 7.366 15.903 0 3.304-0.769 6.429-2.137 9.205l0.054-0.122c-21.668 71.066-49.562 139.796-76.104 208.896-14.502 31.749-24.244 68.625-27.211 107.396l-0.068 1.107c-0.541 24.544-2.814 48.116-6.707 71.138l0.399-2.857c-8.371 70.356-67.677 124.391-139.603 124.391-7.251 0-14.374-0.549-21.33-1.608l0.78 0.098c-36.121-1.505-70.139-8.526-101.883-20.243l2.309 0.746zM994.632 204.616c1.955 0.893 3.289 2.832 3.289 5.082 0 0.644-0.109 1.263-0.311 1.839l0.012-0.039c-1.515 13.989-4.59 26.776-9.085 38.873l0.361-1.108c-25.518 65.536-50.463 131.072-76.227 196.198-11.882 27.219-18.796 58.934-18.796 92.263 0 1.447 0.013 2.891 0.039 4.332l-0.003-0.217c0.655 17.203-0.696 34.529-1.434 51.773-3.602 31.121-19.003 58.087-41.543 76.725l-0.196 0.157c-0.287-2.212-0.655-3.031-0.41-3.523 0.873-1.736 1.772-3.212 2.773-4.608l-0.070 0.102c16.991-24.633 27.55-54.868 28.664-87.5l0.008-0.278c1.229-21.709 4.915-43.254 6.758-64.963 4.971-30.16 13.227-57.176 24.559-82.515l-0.843 2.11c18.719-53.658 42.148-105.554 59.638-159.744 7.25-21.832 14.746-43.459 22.856-65.044zM730.358 766.382c-25.33 14.937-55.808 23.761-88.347 23.761-13.914 0-27.452-1.614-40.436-4.664l1.193 0.236c2.189 0.045 4.77 0.071 7.357 0.071 43.024 0 84.382-7.133 122.956-20.28l-2.682 0.794z" />
<glyph unicode="&#xe929;" d="M930.365 143.749q-62.505-48.415-128.451-92.078c-27.353 25.652-51.961 53.573-73.75 83.669l-1.166 1.692c-16.663 23.674-37.482 43.227-61.563 57.978l-0.901 0.513c-29.744 16.442-51.145 44.877-57.797 78.61l-0.12 0.73c-9.525 50.986-34.679 94.952-70.219 127.862l-0.151 0.138c-24.826 24.482-40.205 58.489-40.205 96.087 0 12.1 1.593 23.828 4.58 34.986l-0.215-0.943c5.132 26.414 18.185 49.179 36.548 66.331l0.070 0.065c19.497 20.48 44.032 34.611 64.266 54.436 18.678 18.309 21.955 21.381 13.599 45.957 29.415 10.938 63.408 17.93 98.828 19.393l0.664 0.022c1.279-1.659 2.622-3.131 4.074-4.486l0.022-0.020c21.078-14.747 39.567-30.182 56.658-47.031l-0.051 0.050c9.994-10.854 19.415-22.323 30.31-32.195 22.202-20.766 40.294-45.609 53.135-73.376l0.605-1.457c4.096-8.192 9.38-16.138 0.328-24.576-1.556-1.475-0.901-5.325-1.147-8.192 0.523-19.274 4.37-37.501 10.985-54.336l-0.376 1.088c4.833-18.637 11.878-36.864 14.909-55.788-11.469-2.376-16.056-7.537-13.722-15.401s8.192-9.912 18.842-6.676c0.983 0.287 2.007 0.532 3.031 0.778 11.637-44.244 24.123-81.060 38.776-116.758l-2.24 6.166c13.308-22.689 21.168-49.968 21.168-79.083 0-1.127-0.012-2.252-0.035-3.373l0.003 0.167c-1.065-7.823-2.621-13.025-10.035-16.384-8.256-3.89-13.867-12.142-13.867-21.705 0-1.815 0.202-3.584 0.585-5.283l-0.030 0.16c1.065-6.226 2.703-11.96 4.055-17.736zM833.126 424.735c-0.337 5.972-5.262 10.687-11.288 10.687-0.468 0-0.929-0.028-1.382-0.084l0.054 0.005c-8.192 0-11.1-4.547-10.977-12.288-0.069-0.442-0.109-0.952-0.109-1.47 0-5.52 4.475-9.994 9.994-9.994 0.705 0 1.394 0.073 2.058 0.212l-0.065-0.011c7.7 0.41 11.305 4.751 11.715 12.943zM670.228 667.955c6.021 1.065 11.1 3.441 10.568 11.305 0.008 0.157 0.012 0.341 0.012 0.525 0 6.311-5.116 11.428-11.428 11.428s-11.428-5.116-11.428-11.428c0-0.286 0.010-0.569 0.031-0.849l-0.002 0.037c0.018-6.14 4.999-11.11 11.141-11.11 0.375 0 0.746 0.019 1.111 0.055l-0.046-0.004zM790.774 341.873c0.071 0.423 0.111 0.911 0.111 1.408 0 4.954-4.016 8.97-8.97 8.97-0.183 0-0.365-0.005-0.546-0.016l0.025 0.001c-4.953-0.256-8.871-4.334-8.871-9.327 0-0.235 0.009-0.467 0.026-0.698l-0.002 0.031c0-0.015 0-0.032 0-0.050 0-4.524 3.668-8.192 8.192-8.192 0.318 0 0.631 0.018 0.939 0.053l-0.038-0.003c0.273-0.032 0.589-0.051 0.909-0.051 4.398 0 7.987 3.466 8.183 7.815l0.001 0.018zM617.349 411.505c0.009 0.147 0.014 0.319 0.014 0.492 0 4.818-3.906 8.724-8.724 8.724-0.005 0-0.010 0-0.015 0h0.001c-0.425 0.078-0.914 0.123-1.413 0.123-4.524 0-8.192-3.668-8.192-8.192 0-0.202 0.007-0.402 0.022-0.6l-0.002 0.027c-0.004-0.098-0.006-0.213-0.006-0.329 0-5.112 4.144-9.257 9.257-9.257 0.045 0 0.090 0 0.136 0.001h-0.007c0.215-0.020 0.466-0.032 0.719-0.032 4.524 0 8.192 3.668 8.192 8.192 0 0.213-0.008 0.424-0.024 0.633l0.002-0.028zM752.517 450.212c5.161 0.819 8.684 3.564 8.397 8.97 0 0.021 0 0.045 0 0.070 0 4.524-3.668 8.192-8.192 8.192-0.376 0-0.745-0.025-1.107-0.074l0.042 0.005c-5.325 0-7.741-2.703-7.537-7.864-0.018-0.212-0.028-0.458-0.028-0.706 0-4.715 3.706-8.565 8.364-8.795l0.021-0.001zM634.184 556.134c-7.086 0-9.789-3.85-9.83-8.724 0-0.002 0-0.003 0-0.005 0-4.366 3.539-7.905 7.905-7.905 0.101 0 0.201 0.002 0.301 0.006h-0.014c5.407 0 8.192 3.072 7.946 8.806s-2.335 7.7-6.349 7.619zM837.386 174.838c0.034 0.26 0.054 0.562 0.054 0.867 0 3.78-2.977 6.865-6.715 7.038l-0.016 0.001c-0.184 0.016-0.398 0.025-0.614 0.025-4.185 0-7.578-3.393-7.578-7.578 0-0.009 0-0.018 0-0.026v0.001c-0.287-4.833 1.352-8.192 6.758-8.438s7.905 1.597 8.069 7.905zM902.39 284.652c-4.096-1.516-8.192-2.99-7.864-8.192-0.001-0.038-0.001-0.083-0.001-0.128 0-3.994 3.158-7.25 7.114-7.408h0.014c0.066-0.002 0.143-0.003 0.22-0.003 4.027 0 7.291 3.264 7.291 7.291 0 0.319-0.020 0.633-0.060 0.941l0.004-0.036c-0.086 3.819-3 6.931-6.725 7.329l-0.033 0.003zM528.302 472.371c-0.778 4.096-3.195 7.332-7.537 7.086-4.024-0.091-7.252-3.374-7.252-7.412 0-0.479 0.045-0.947 0.132-1.4l-0.007 0.046c0.369-4.342 3.482-5.775 7.455-5.734 0.209-0.024 0.451-0.037 0.697-0.037 3.597 0 6.513 2.916 6.513 6.513 0 0.259-0.015 0.514-0.044 0.764l0.003-0.030zM609.485 615.363c3.245 0.26 5.78 2.958 5.78 6.248 0 0.267-0.017 0.529-0.049 0.787l0.003-0.031c0.021 0.199 0.033 0.431 0.033 0.665 0 3.71-3.008 6.717-6.717 6.717-0.127 0-0.253-0.004-0.378-0.010l0.017 0.001c-4.465 0.287-5.775-3.072-5.816-6.963-0.076-0.371-0.12-0.798-0.12-1.235 0-3.552 2.879-6.431 6.431-6.431 0.273 0 0.542 0.017 0.807 0.050l-0.032-0.003zM861.798 342.282c-4.096-0.778-7.25-3.113-7.332-7.414-0.001-0.049-0.002-0.106-0.002-0.164 0-3.915 3.173-7.088 7.088-7.088 3.857 0 6.994 3.081 7.086 6.916v0.008c0.369 4.178-2.908 6.39-6.881 7.537zM923.771 191.058c-0.86 4.628-4.096 5.571-7.864 5.366s-6.676-2.253-6.554-6.554c-0.016-0.162-0.026-0.35-0.026-0.54 0-3.144 2.549-5.693 5.693-5.693 0.43 0 0.849 0.048 1.252 0.138l-0.038-0.007c3.891 0.286 7.010 3.25 7.532 7.043l0.005 0.043zM761.405 131.133c3.154 1.188 6.226 2.417 6.103 6.922 0 4.096-1.393 6.922-5.693 7.332-0.382 0.091-0.821 0.143-1.273 0.143-3.167 0-5.734-2.567-5.734-5.734 0-0.065 0.001-0.129 0.003-0.193v0.009c-0.018-0.205-0.029-0.443-0.029-0.684 0-3.969 2.823-7.279 6.571-8.032l0.052-0.009zM731.709 274.043c-3.523-0.573-6.431-1.884-6.717-6.308-0.060-0.32-0.095-0.689-0.095-1.065 0-3.325 2.696-6.021 6.021-6.021 0.019 0 0.038 0 0.057 0h-0.003c0.285-0.049 0.614-0.077 0.949-0.077 3.258 0 5.898 2.641 5.898 5.898 0 0.099-0.002 0.198-0.007 0.295l0.001-0.014c0.451 4.178-2.13 6.103-6.144 7.086zM794.051 492.769c2.915 0.343 5.155 2.799 5.155 5.779 0 0.332-0.028 0.657-0.081 0.973l0.005-0.034c0.001 0.030 0.001 0.066 0.001 0.102 0 3.167-2.567 5.734-5.734 5.734-0.45 0-0.889-0.052-1.309-0.15l0.039 0.008c-3.604-0.287-5.898-2.458-5.161-6.185 0.532-3.526 3.445-6.228 7.025-6.43l0.020-0.001zM713.4 367.759c2.662 0.573 5.612 2.048 4.997 6.021-0.278 3.548-3.225 6.321-6.821 6.321-0.151 0-0.301-0.005-0.45-0.015l0.020 0.001c-3.809-0.205-5.284-3.195-4.956-6.799s2.703-5.693 7.168-5.734zM767.222 210.514c-3.236-1.147-5.775-3.072-5.775-6.595s2.662-5.489 6.267-5.325 6.144 2.007 5.693 5.857c-0.521 3.14-3.072 5.552-6.239 5.855l-0.028 0.002zM737.239 585.462c-0.21 0.033-0.452 0.051-0.698 0.051-2.647 0-4.792-2.146-4.792-4.792 0-0.047 0.001-0.093 0.002-0.14v0.007c0-2.662 1.393-4.915 4.096-4.71s5.652 1.393 5.693 4.792c-0.098 2.423-1.981 4.377-4.365 4.586l-0.018 0.001zM738.918 528.445c-2.54-0.328-4.792-1.475-4.506-4.465s2.662-3.891 5.366-3.85 4.096 0.901 4.096 3.645-2.13 4.055-5.038 4.424zM591.749 508.252c-0.19 1.852-1.742 3.284-3.627 3.284-0.078 0-0.156-0.002-0.233-0.007l0.011 0.001c-2.294 0-4.096-0.696-4.096-3.359 0-0.007 0-0.016 0-0.025 0-2.103 1.586-3.837 3.627-4.069l0.019-0.002c2.335-0.451 3.359 1.147 4.219 3.973z" />
<glyph unicode="&#xe92a;" d="M144.876 808.079c38.594 22.648 83.333 40.534 130.788 51.257l3.151 0.599c9.077-2.196 19.498-3.455 30.213-3.455 0.697 0 1.392 0.005 2.087 0.016l-0.105-0.001c36.536-0.532 73.114 1.106 109.65-0.778-30.52-7.239-57.421-18.243-82.021-32.737l1.371 0.747c-39.37-27.105-70.233-63.954-89.466-107.125l-0.646-1.624c-15.557-30.433-24.674-66.383-24.674-104.463 0-31.029 6.053-60.644 17.043-87.729l-0.561 1.564c9.843-29.182 17.557-63.493 21.721-98.89l0.234-2.445c9.339-66.232 17.367-132.669 32.317-197.96 2.171-9.544 3.645-19.21 5.489-28.672-14.459 6.349-29.082 12.288-43.336 19.128-34.061 15.557-63.366 34.857-89.228 57.933l0.345-0.303c-14.514 10.48-27.119 22.24-38.115 35.392l-0.265 0.326c-11.579 14.071-20.551 30.774-25.886 49.028l-0.247 0.984c-8.52 47.8-18.514 95.355-23.675 143.77-3.482 32.768-6.554 65.536-7.823 98.304-0.942 24.986-0.778 50.053 0 75.039 0 0.069 0 0.152 0 0.234 0 44.299 19.894 83.952 51.236 110.512l0.21 0.174c8.020 5.791 14.736 12.819 20.009 20.877l0.184 0.3z" />
<glyph unicode="&#xe92b;" d="M144.916 808.038c-5.398-8.429-12.062-15.524-19.812-21.229l-0.217-0.152c-31.552-26.734-51.446-66.387-51.446-110.686 0-0.082 0-0.164 0-0.247v0.013c-0.696-24.986-0.901-50.053 0-75.039 1.27-32.768 4.342-65.536 7.823-98.304 5.161-48.415 15.196-95.928 23.675-143.77 5.581-19.239 14.553-35.941 26.325-50.253l-0.192 0.241c11.271-13.479 23.89-25.239 37.816-35.301l0.604-0.416c25.517-22.775 54.822-42.075 86.703-56.732l2.18-0.899c14.254-6.799 28.672-12.78 43.336-19.128 3.477-18.226 9.156-34.459 16.862-49.481l-0.478 1.026c-14.427 3.446-27.126 8.455-38.868 14.977l0.776-0.395c-48.456 22.118-96.911 44.237-145.121 66.847-14.254 6.676-27.648 15.237-41.615 22.61-6.519 3.431-11.242 9.526-12.752 16.798l-0.028 0.159c-10.854 45.056-24.945 89.539-34.488 135.168-8.888 42.435-13.967 85.402-19.292 128.369-2.495 14.105-3.98 30.409-4.095 47.038l-0.001 0.107c0.182 2.579 0.285 5.589 0.285 8.623 0 8.055-0.73 15.94-2.126 23.593l0.121-0.799c-0.398 4.667-0.625 10.099-0.625 15.584 0 82.341 51.107 152.744 123.331 181.22l1.32 0.459z" />
<glyph unicode="&#xe92c;" d="M614.851 699.863c8.192-24.576 5.038-27.648-13.599-45.957-20.234-19.825-44.728-34.161-64.266-54.477-18.433-17.217-31.486-39.983-36.493-65.627l-0.125-0.769c-2.755-10.193-4.338-21.895-4.338-33.968 0-37.617 15.366-71.645 40.164-96.149l0.013-0.013c35.69-33.048 60.844-77.014 70.146-126.57l0.223-1.43c6.772-34.462 28.174-62.898 57.327-79.040l0.59-0.3c25.013-15.257 45.861-34.811 62.111-57.841l0.435-0.65c22.954-31.788 47.562-59.709 74.601-85.069l0.314-0.292c-10.462-8.997-22.471-16.621-35.493-22.37l-0.92-0.362c-2.028-1.307-4.505-2.084-7.163-2.084-4.29 0-8.107 2.023-10.55 5.167l-0.023 0.030c-29.485 30.719-56.227 64.531-79.554 100.75l-1.588 2.633c-17.029 26.894-36.057 50.206-57.53 71.010l-0.101 0.097c-25.771 23.861-44.074 55.452-51.223 91.075l-0.182 1.085c-9.139 35.67-26.735 66.418-50.562 91.114l0.058-0.060c-8.192 9.339-15.565 19.087-23.593 28.467-13.533 16.976-21.714 38.739-21.714 62.413 0 0.349 0.002 0.698 0.005 1.046v-0.053c-0.524 5.884-0.822 12.729-0.822 19.644 0 28.935 5.227 56.649 14.788 82.25l-0.531-1.624c10.93 22.623 25.484 41.798 43.122 57.601l0.173 0.153c26.021 23.822 56.148 43.73 89.097 58.462l2.121 0.848c1.511 0.513 3.253 0.825 5.062 0.86h0.017z" />
<glyph unicode="&#xe92d;" d="M372.122 471.306c-11.828 24.293-18.743 52.851-18.743 83.023 0 19.734 2.958 38.776 8.454 56.709l-0.361-1.369c15.841 38.719 40.567 71.025 71.751 95.467l0.502 0.379c37.895 33.048 84.415 57.186 135.721 68.63l2.068 0.388c14.732 2.534 31.699 3.983 49.004 3.983 9.801 0 19.493-0.465 29.056-1.373l-1.22 0.094c16.689-0.749 32.216-2.302 47.482-4.649l-2.426 0.307c27.702-7.045 51.92-19.048 72.847-35.122l-0.471 0.347h0.246c-3.85-3.768-8.192-0.369-11.837 0-7.042 0.445-15.269 0.699-23.557 0.699-85.154 0-164.055-26.772-228.745-72.359l1.258 0.84-8.765-5.734c-2.47 1.571-5.479 2.504-8.706 2.504-4.123 0-7.89-1.523-10.769-4.036l0.019 0.017c-2.253-1.638-4.096-4.342-7.004-4.424-9.45-1.345-17.596-6.104-23.299-12.965l-0.049-0.060c-22.691-22.058-40.408-49.108-51.39-79.387l-0.465-1.468c-10.812-21.574-17.142-47.006-17.142-73.917 0-1.604 0.022-3.203 0.067-4.797l-0.005 0.235c0.012-0.249 0.018-0.541 0.018-0.834 0-4.171-1.326-8.032-3.58-11.184l0.040 0.058zM500.613 700.682c-0.86 5.571-4.096 9.544-9.462 9.38-0.273 0.031-0.589 0.048-0.909 0.048-4.728 0-8.561-3.833-8.561-8.561 0-0.132 0.003-0.264 0.009-0.395l-0.001 0.019c-0.038-0.308-0.060-0.665-0.060-1.027 0-4.841 3.924-8.765 8.765-8.765 0.31 0 0.616 0.016 0.917 0.047l-0.038-0.003c6.349-0.328 7.946 4.342 9.339 9.093zM563.773 738.038c-3.4-0.369-5.898-2.007-5.489-5.857 0.26-2.63 2.461-4.668 5.137-4.668 0.225 0 0.446 0.014 0.664 0.042l-0.026-0.003c3.564 0 6.226 1.638 6.185 5.366s-2.867 4.915-6.472 4.956zM373.309 549.622c3.727 0 4.833 2.13 4.792 5.407s-1.638 5.284-5.161 4.997c-0.078 0.004-0.168 0.007-0.26 0.007-2.76 0-4.997-2.237-4.997-4.997 0-0.132 0.005-0.263 0.015-0.393l-0.001 0.017c0.164-3.4 2.458-4.874 5.652-5.079zM414.679 663.409c-2.171-0.205-4.096-1.188-4.096-3.645 0-0.002 0-0.005 0-0.007 0-2.176 1.696-3.955 3.839-4.088l0.012-0.001c0.312-0.085 0.67-0.134 1.039-0.134 1.887 0 3.477 1.277 3.951 3.013l0.007 0.029c0.737 3.195-2.54 3.523-4.71 4.792z" />
<glyph unicode="&#xe92e;" d="M257.434 572.641c-4.667 12.598-7.368 27.15-7.368 42.332 0 17.376 3.537 33.926 9.93 48.968l-0.31-0.82c18.881 44.512 41.965 82.91 69.583 117.531l-0.771-1c27.761 32.221 66.874 53.99 111.064 59.072l0.798 0.075c33.202 5.407 73.275 9.507 113.93 11.381l2.396 0.088c0.841 0.018 1.832 0.028 2.825 0.028 33.909 0 65.012-12.009 89.29-32.006l-0.241 0.193c-2.689-1.616-5.934-2.572-9.402-2.572-1.356 0-2.677 0.146-3.95 0.423l0.122-0.022c-4.047 0.126-8.806 0.198-13.582 0.198-35.627 0-70.32-3.997-103.656-11.567l3.123 0.596c-28.944-7.969-53.523-17.020-77.124-27.836l3.15 1.294c-3.195-1.352-6.554-2.335-9.871-3.523-2.852 3.152-6.958 5.124-11.525 5.124-2.501 0-4.863-0.591-6.956-1.642l0.089 0.041c-7.207-2.471-13.449-5.575-19.195-9.369l0.312 0.194c-20.802-13.864-38.933-28.131-55.872-43.676l0.33 0.299c-6.636-6.021-19.866-6.144-17.9-19.907-13.011-16.075-25.299-34.031-36.105-52.941l-1.045-1.986c-2.499-3.891-4.424-8.192-10.609-5.366-2.99 1.393-5.284-0.942-7.127-3.236-2.499-3.154-0.328-5.325 1.802-7.168 3.891-3.318 2.662-6.676 0.696-10.363-3.784-7.659-7.005-16.592-9.207-25.92l-0.173-0.868c-1.634-9.798-4.227-18.55-7.744-26.815l0.289 0.764zM376.504 788.664c-3.195 0.573-5.775-2.048-6.021-5.734-0.328-4.465 2.99-6.799 7.291-7.004 0.273-0.047 0.587-0.073 0.907-0.073 3.122 0 5.652 2.531 5.652 5.652 0 0.257-0.017 0.51-0.050 0.758l0.003-0.029c0 4.26-2.499 6.226-7.823 6.513zM429.302 800.625c-0.012 0-0.027 0-0.041 0-2.556 0-4.628-2.072-4.628-4.628 0 0 0 0 0 0v0c-0.328-3.359 1.065-5.366 4.628-5.243 2.58 0 4.997 1.106 5.038 4.096s-2.335 4.792-4.997 5.857zM550.502 827.372c0.247-0.053 0.53-0.083 0.82-0.083 2.262 0 4.096 1.834 4.096 4.096 0 0.029 0 0.058-0.001 0.087v-0.004c0.036 0.213 0.056 0.459 0.056 0.71 0 2.364-1.821 4.303-4.136 4.491l-0.016 0.001c-0.327 0.084-0.703 0.132-1.089 0.132-2.239 0-4.101-1.619-4.477-3.751l-0.004-0.027c-0.942-3.604 2.089-4.383 4.751-5.571z" />
<glyph unicode="&#xe92f;" d="M883.876 418.632c-3.031 19.128-10.076 37.151-14.909 55.788-6.234 15.747-10.080 33.973-10.604 53.028l-0.005 0.22c0.246 2.785-0.41 6.636 1.147 8.192 9.052 8.643 3.645 16.384-0.328 24.576-13.444 29.225-31.537 54.068-53.606 74.711l-0.133 0.123c-10.895 9.871-20.48 21.34-30.351 32.195-17.040 16.801-35.529 32.235-55.228 46.063l-1.379 0.918c-1.475 1.375-2.817 2.847-4.033 4.421l-0.063 0.084c6.176 0.961 13.299 1.511 20.55 1.511 71.926 0 131.232-54.034 139.539-123.724l0.065-0.666c3.493-20.163 5.766-43.735 6.298-67.737l0.010-0.544c3.034-39.878 12.776-76.754 28.111-110.552l-0.832 2.049c26.501-69.263 54.395-137.994 76.104-208.896 1.314-2.654 2.083-5.779 2.083-9.083 0-6.36-2.847-12.054-7.337-15.878l-0.029-0.024c-14.47-15.476-30.36-29.286-47.569-41.341l-0.968-0.643c-1.352 5.775-2.99 11.51-4.096 17.326-0.353 1.54-0.555 3.308-0.555 5.123 0 9.563 5.612 17.815 13.721 21.644l0.146 0.062c7.455 3.441 8.97 8.643 10.035 16.384 0.021 0.954 0.032 2.079 0.032 3.206 0 29.115-7.859 56.394-21.573 79.831l0.405-0.749c-12.413 29.532-24.9 66.348-35.055 104.119l-1.481 6.473c3.318 9.871 2.417 17.695-8.11 21.791z" />
<glyph unicode="&#xe930;" d="M372.040 445.706c8.071-21.282 14.5-46.232 18.169-72.070l0.222-1.904c2.963-14.756 8.033-27.869 14.953-39.774l-0.33 0.616c29.574-52.402 55.651-113.204 75.012-176.93l1.706-6.53c4.147-18.792 12.614-35.177 24.323-48.673l-0.115 0.136c15.667-14.807 36.132-24.688 58.829-27.078l0.44-0.038c3.493-1.064 7.507-1.677 11.665-1.677 3.611 0 7.115 0.462 10.454 1.331l-0.288-0.064c2.048 0.778 5.407-1.065 7.823-2.294 3.195-1.638 6.554-4.506 5.652-8.192s-5.407-1.966-8.192-2.007c-21.135 0-42.312-0.369-63.447 0-0.736-0.061-1.594-0.096-2.46-0.096-13.202 0-24.52 8.070-29.289 19.546l-0.077 0.21c-5.53 13.148-12.698 25.559-19.333 38.707-5.284-8.847-3.4-14.090 18.391-52.552-19.21 5.161-36.577 7.578-47.964 27.73-27.661 51.537-51.57 111.434-68.599 174.163l-1.402 6.061q-20.767 68.977-39.813 138.486c-6.402 16.441-13.78 30.567-22.485 43.739l0.53-0.854c1.951 0.174 4.22 0.273 6.512 0.273 3.161 0 6.278-0.188 9.34-0.555l-0.37 0.036c7.339-2.954 15.844-5.031 24.717-5.832l0.351-0.026c12.165-22.87 19.309-50.009 19.309-78.816 0-0.832-0.006-1.663-0.018-2.492l0.001 0.125c-0.054-1.068-0.085-2.318-0.085-3.576 0-15.776 4.855-30.419 13.153-42.514l-0.166 0.256c13.631-21.172 25.71-45.509 34.995-71.182l0.804-2.546c9.789-27.402 20.070-54.682 30.228-81.92 4.705-16.258 9.918-29.986 16.079-43.182l-0.76 1.813c1.599 2.193 2.558 4.941 2.558 7.913 0 2.191-0.521 4.26-1.447 6.091l0.035-0.077c-7.25 20.152-14.664 40.264-21.504 60.58-15.627 50.252-35.445 93.855-59.885 134.355l1.517-2.71c-6.544 8.658-10.674 19.466-11.218 31.21l-0.005 0.125c0.059 1.802 0.092 3.919 0.092 6.045 0 26.757-5.316 52.273-14.95 75.548l0.481-1.312c2.13 0.369 4.424 0.205 5.857 2.376zM428.442 218.665l-0.983 0.369v-64.635h0.983z" />
<glyph unicode="&#xe931;" d="M509.133 352.727c10.376-15.287 18.772-32.989 24.249-51.929l0.327-1.319c14.819-45.511 36.951-84.885 65.336-118.853l-0.455 0.56c27.894-34.365 53.248-70.779 80.364-105.8 17.616-21.94 35.437-41.578 54.359-60.096l0.118-0.115c6.794-5.294 14.557-9.847 22.886-13.312l0.666-0.246c-7.371-3.442-16.003-5.451-25.105-5.451-0.217 0-0.434 0.001-0.651 0.003h0.033c-10.036-1.467-21.983-2.497-34.099-2.856l-0.472-0.011c-6.247 0.403-11.697 3.505-15.241 8.142l-0.037 0.050c-50.457 53.536-95.211 113.42-132.688 178.048l-2.48 4.634c-16.223 28.44-29.898 61.346-39.323 96.003l-0.694 2.997c-6.381 22.87-15.595 42.877-27.458 60.994l0.506-0.824c-3.62 4.379-6.431 9.576-8.114 15.257l-0.078 0.308c2.949 3.523 6.185 1.434 9.544 0.819 7.83-2.742 16.879-4.535 26.279-4.989l0.222-0.009z" />
<glyph unicode="&#xe932;" d="M372.081 445.747c-1.434-2.212-3.768-2.007-5.939-2.171-14.024 34.238-23.334 73.889-25.954 115.356l-0.055 1.093c0 2.13 1.188 5.775-2.417 5.857s-4.096-3.441-3.727-6.267c1.516-13.23 3.031-26.46 4.915-39.649 3.4-24.044 12.739-46.531 18.022-70.083-9.224 0.825-17.729 2.903-25.68 6.073l0.612-0.215c-2.692 0.33-5.809 0.519-8.97 0.519-2.292 0-4.562-0.099-6.804-0.293l0.291 0.020c-10.578 14.627-17.865 32.302-20.416 51.475l-0.064 0.585c-0.985 8.285-1.547 17.881-1.547 27.608 0 37.931 8.545 73.866 23.814 105.985l-0.64-1.497c20.219 46.804 56.104 83.657 100.909 104.621l1.245 0.523c32.931 19.6 71.159 34.862 111.786 43.693l2.533 0.462c30.46 6.291 65.466 9.892 101.313 9.892 4.89 0 9.765-0.067 14.623-0.2l-0.715 0.016c7.151-0.685 13.521-1.697 19.758-3.066l-1.080 0.199c0.492 0 0.819-0.983 2.703-3.4-8.871 0.484-19.254 0.76-29.701 0.76-14.050 0-27.984-0.499-41.785-1.48l1.854 0.106c-24.298-1.777-46.844-5.91-68.466-12.211l2.315 0.578c-23.615-7.085-44.204-17.241-62.653-30.232l0.68 0.454c29.28 15.724 63.395 27.002 99.544 31.861l1.546 0.17c-42.231-10.276-79.406-26.459-112.886-47.906l1.474 0.884c-4.096 2.13 2.048 5.038-0.737 7.209-0.532 0-1.311 0-1.72-0.246-34.317-22.381-63.929-47.997-89.716-77.083l-0.396-0.455c-16.952-24.714-28.811-54.231-33.376-86.102l-0.129-1.102c4.878 6.965 8.387 15.254 9.942 24.212l0.052 0.364c8.8 34.486 27.566 63.741 53.014 85.371l0.234 0.194c2.458 1.966 5.12 3.604 7.7 5.407l1.597-1.516c-10.281-15.155-24.904-26.542-35.103-41.902-17.537-24.438-28.044-54.952-28.044-87.92 0-3.654 0.129-7.277 0.383-10.867l-0.027 0.483c3.338-32.347 10.569-61.997 21.286-89.92l-0.806 2.389c2.382-5.381 4.264-11.644 5.344-18.178l0.063-0.459z" />
<glyph unicode="&#xe933;" d="M372.122 471.265c2.26 3.115 3.615 7.015 3.615 11.231 0 0.228-0.004 0.455-0.012 0.68l0.001-0.033c-0.039 1.359-0.062 2.958-0.062 4.562 0 26.911 6.33 52.344 17.582 74.89l-0.44-0.973c11.447 31.747 29.164 58.797 51.806 80.807l0.050 0.048c5.752 6.921 13.897 11.68 23.15 13.002l0.197 0.023c3.072 0 4.751 2.785 7.004 4.424 2.863 2.506 6.637 4.035 10.767 4.035 3.237 0 6.255-0.939 8.796-2.559l-0.066 0.039c-22.684-20.122-43.187-41.546-61.84-64.533l-0.788-1.003c-24.063-29.388-38.647-67.349-38.647-108.716 0-33.372 9.491-64.528 25.922-90.915l-0.423 0.729c10.766-16.156 22.56-30.227 35.718-42.889l0.081-0.078c14.553-14.943 25.164-33.794 30.112-54.829l0.158-0.794c22.173-81.122 56.715-152.040 102.006-214.673l-1.327 1.927c0.605-0.994 1.234-2.19 1.794-3.425l0.090-0.221c-2.889-0.335-6.237-0.526-9.63-0.526-12.486 0-24.368 2.589-35.138 7.26l0.572-0.221c-3.533 10.656-8.518 19.899-14.825 28.070l0.161-0.217c-8.97 13.844-12.288 31.58-27.812 40.96-0.886 0.53-1.47 1.484-1.47 2.575 0 0.816 0.327 1.555 0.856 2.095v0c4.342 4.915 0.696 9.298-0.901 13.64-3.564 9.544-7.946 18.76-11.182 28.426-27.11 69.327-57.618 128.669-93.299 184.38l2.49-4.156c-7.094 33.851-15.735 62.961-26.437 91.053l1.37-4.094z" />
<glyph unicode="&#xe934;" d="M313.016 187.74c-5.476 12.416-9.248 26.815-10.572 41.916l-0.037 0.518c-11.674 51.569-19.702 103.875-26.952 156.14-4.833 35.021-8.438 70.205-15.524 104.94-3.154 15.524-9.789 29.983-13.885 45.056-7.788 22.34-12.286 48.092-12.286 74.895 0 20.896 2.734 41.154 7.864 60.435l-0.37-1.637c10.73 37.428 27.111 70.074 48.426 98.844l-0.585-0.826c31.627 41.649 78.477 70.317 132.118 77.706l1.043 0.118c27.402 3.768 54.641 9.216 82.125 11.878 8.531 1.629 18.344 2.56 28.375 2.56 11.388 0 22.495-1.201 33.202-3.483l-1.038 0.185c-0.571 0.002-1.247 0.003-1.924 0.003-31.495 0-62.396-2.548-92.506-7.45l3.293 0.442c-36.439-2.388-70.211-11.456-100.889-25.99l1.684 0.718c-29.362-16.479-53.295-39.455-70.427-67.089l-0.475-0.822c-15.155-24.084-29.327-48.783-42.271-74.22-10.831-19.687-17.204-43.146-17.204-68.093 0-19.128 3.746-37.381 10.545-54.066l-0.345 0.958c12.161-34.302 22.174-74.888 28.249-116.75l0.423-3.55c15.319-84.296 24.576-169.779 47.882-252.518 0.473-2.089 0.836-4.583 1.015-7.129l0.009-0.162c-5.467 3.175-11.864 5.451-18.678 6.438l-0.287 0.034z" />
<glyph unicode="&#xe935;" d="M298.066 392.827q-7.578 39.199-15.114 78.438c-1.311 6.717-2.499 13.435-3.768 20.48 4.71 0.532 4.424-3.482 5.325-5.448 10.124-23.103 20.665-42.614 32.578-61.16l-1.038 1.727c11.404-20.979 19.737-45.4 23.607-71.279l0.15-1.22c14.437-66.034 30.331-121.151 49.291-174.82l-3.129 10.161c6.144-16.794 0.819-24.576-17.49-26.993-0.941-0.052-2.041-0.081-3.149-0.081-2.224 0-4.419 0.119-6.581 0.35l0.269-0.023c0.032 0.432 0.051 0.936 0.051 1.444 0 5.36-2.059 10.239-5.429 13.889l0.013-0.014c-3.060 2.831-5.004 6.83-5.12 11.284v0.021c-0.228 10.765-1.708 21.080-4.301 30.943l0.205-0.92c-10.258 63.737-24.95 120.145-44.338 174.318l2.108-6.75c-0.644 2.389-2.124 4.362-4.099 5.63l-0.038 0.023z" />
<glyph unicode="&#xe936;" d="M507.208 354.857c-9.617 0.447-18.668 2.227-27.182 5.16l0.681-0.204c-3.4 0.614-6.636 2.703-9.544-0.819-7.373 9.789-14.090 20.111-22.2 29.245-23.092 26.185-37.187 60.783-37.187 98.673 0 36.92 13.383 70.714 35.561 96.796l-0.176-0.213c6.185 7.537 12.288 15.237 19.292 24.166 0-0.048 0.001-0.105 0.001-0.161 0-4.911-1.698-9.425-4.539-12.988l0.032 0.042c-11.906-22.887-19.348-49.814-20.469-78.365l-0.011-0.361c-0.45-5.296-0.707-11.46-0.707-17.685 0-14.869 1.465-29.396 4.259-43.445l-0.234 1.41c8.468-30.163 23.552-56.133 43.655-77.288l-0.074 0.078c6.39-7.864 12.534-16.015 18.842-24.044z" />
<glyph unicode="&#xe937;" d="M545.423 312.3c5.126-10.928 9.107-23.617 11.31-36.907l0.118-0.859c9.238-29.936 25.954-55.295 47.994-74.765l0.175-0.151c25.388-23.158 47.128-49.708 64.658-79.063l0.878-1.587c21.28-31.287 42.019-58.285 64.152-84.052l-1.033 1.231c5.791-8.515 15.434-14.034 26.367-14.034 7.981 0 15.276 2.942 20.858 7.8l-0.038-0.033c11.182 6.636 21.709 14.336 32.768 21.504 36.864 24.166 72.335 49.93 107.479 76.308 2.295 1.526 4.977 3.066 7.759 4.436l0.433 0.193c2.048-4.096-1.925-5.53-4.096-7.332-41.095-34.305-86.805-68.704-134.204-100.795l-6.043-3.858c-23.675-16.384-28.672-15.688-48.865 5.652-17.080 18.186-34.488 36.168-49.848 55.951-35.84 46.039-72.54 91.423-106.045 139.264-11.831 16.481-21.701 35.467-28.664 55.802l-0.459 1.542c-4.333 9.173-7.699 19.823-9.567 30.981l-0.1 0.722z" />
<glyph unicode="&#xe938;" d="M397.148 384.389c33.187-51.554 63.695-110.896 88.353-173.19l2.455-7.034c3.236-9.626 7.578-18.883 11.182-28.426 1.638-4.342 5.284-8.684 0.901-13.64-0.529-0.539-0.856-1.279-0.856-2.094 0-1.091 0.584-2.045 1.457-2.568l0.014-0.008c15.36-9.544 18.842-27.238 27.812-40.96 6.145-7.954 11.13-17.197 14.472-27.193l0.191-0.66c-22.552 5.145-40.218 21.925-46.542 43.548l-0.111 0.443c-24.525 80.49-54.38 149.991-90.747 215.373l2.846-5.576c-7.204 11.012-11.49 24.498-11.49 38.986 0 1.054 0.023 2.103 0.068 3.146l-0.005-0.149z" />
<glyph unicode="&#xe939;" d="M257.434 572.764c3.238 7.486 5.844 16.223 7.398 25.318l0.098 0.691c2.375 10.196 5.596 19.129 9.714 27.544l-0.334-0.756c1.966 3.686 3.195 7.045-0.696 10.363-2.13 1.843-4.096 4.096-1.802 7.168 1.802 2.294 4.096 4.628 7.127 3.236 6.144-2.867 8.192 1.475 10.609 5.366 11.849 20.896 24.137 38.852 37.75 55.693l-0.599-0.765c-1.966 13.763 11.264 13.885 17.9 19.907 16.609 15.248 34.74 29.515 53.911 42.349l1.63 1.028c5.433 3.599 11.676 6.703 18.295 8.998l0.587 0.177c2.003 1.010 4.365 1.601 6.866 1.601 4.567 0 8.672-1.972 11.513-5.11l0.012-0.013c-18.063-10.65-36.332-21.012-54.19-31.99-46.68-29.493-80.653-75.488-93.906-129.615l-0.302-1.457c-8.601-27.085-13.752-58.268-14.17-90.592l-0.002-0.216c-6.899 14.533-12.877 31.569-17.055 49.3l-0.353 1.777z" />
<glyph unicode="&#xe93a;" d="M420.7 855.675c-36.536 1.925-73.114 0.287-109.65 0.778-0.591-0.009-1.288-0.015-1.986-0.015-10.714 0-21.133 1.259-31.118 3.638l0.91-0.183c43.537 12.263 93.534 19.312 145.178 19.312 39.14 0 77.334-4.049 114.186-11.751l-3.609 0.631z" />
<glyph unicode="&#xe93b;" d="M994.673 204.493c-8.192 21.586-15.647 43.254-22.692 65.085-17.49 54.108-40.96 106.004-59.638 159.744-10.489 23.229-18.744 50.244-23.448 78.462l-0.267 1.943c-1.884 21.668-5.53 43.254-6.758 64.963-1.112 32.924-11.671 63.174-29.035 88.375l0.363-0.557c-0.932 1.294-1.83 2.769-2.614 4.312l-0.089 0.193c-0.246 0.492 0 1.311 0.41 3.523 22.735-18.795 38.137-45.761 41.687-76.34l0.051-0.542c0.737-17.244 2.089-34.57 1.434-51.773-0.023-1.222-0.036-2.663-0.036-4.108 0-33.332 6.913-65.050 19.385-93.797l-0.589 1.525c25.764-65.249 50.749-130.826 76.227-196.198 4.148-10.987 7.237-23.772 8.701-37.047l0.064-0.718c0.207-0.56 0.327-1.207 0.327-1.881 0-2.324-1.423-4.315-3.444-5.15l-0.037-0.014z" />
<glyph unicode="&#xe93c;" d="M298.025 392.786c2.032-1.346 3.506-3.394 4.083-5.792l0.013-0.066c17.278-47.421 31.969-103.828 41.476-161.978l0.754-5.59c2.388-8.944 3.868-19.258 4.094-29.882l0.002-0.142c0.116-4.475 2.060-8.474 5.109-11.295l0.011-0.010c3.358-3.636 5.417-8.515 5.417-13.875 0-0.508-0.018-1.012-0.055-1.51l0.004 0.067c-9.789-1.352-13.681 4.915-16.671 12.616-7.426 20.746-14.367 46.205-19.491 72.315l-0.579 3.543c-10.895 46.694-16.957 94.249-24.166 141.599z" />
<glyph unicode="&#xe93d;" d="M545.423 312.422l-4.096-2.089c-15.387 36.61-36.311 67.937-62.089 94.532l0.076-0.078c-18.054 21.645-29.279 49.54-30.061 80.032l-0.003 0.168c-0.672 6.164-1.055 13.313-1.055 20.551 0 23.035 3.881 45.164 11.024 65.768l-0.425-1.409c10.598 35.952 32.789 65.703 62.167 85.668l0.543 0.348 1.597-1.638c-11.428-12.902-22.61-26.010-33.382-39.444-17.364-22.826-28.766-51.051-31.416-81.778l-0.041-0.592c-0.872-9.075-1.37-19.619-1.37-30.28 0-17.049 1.272-33.801 3.727-50.166l-0.227 1.844c1.763-12.086 6.763-22.768 14.084-31.426l-0.076 0.092c14.623-18.964 29.532-37.683 43.95-56.771 12.026-15.049 21.33-32.861 26.819-52.274l0.255-1.056z" />
<glyph unicode="&#xe93e;" d="M312.812 187.74c7.061-1.051 13.412-3.339 19.095-6.649l-0.253 0.136c3.329-7.275 7.588-13.514 12.724-18.911l-0.027 0.028c3.933-4.189 9.507-6.799 15.69-6.799 2.97 0 5.799 0.602 8.372 1.691l-0.141-0.053c5.366 1.638 10.568 3.809 15.933 5.284 3.768 1.024 8.438 7.25 11.1-1.966 1.925-6.636 4.096-11.837-5.038-14.746s-16.794-7.086-25.436-9.994c-3.273-1.109-7.044-1.75-10.964-1.75-14.775 0-27.425 9.096-32.656 21.994l-0.085 0.236c-2.499 10.404-6.554 20.767-8.315 31.498z" />
<glyph unicode="&#xe93f;" d="M730.399 766.3c-35.825 12.304-77.102 19.408-120.039 19.408-2.655 0-5.304-0.027-7.946-0.081l0.395 0.006c11.791 2.814 25.329 4.428 39.243 4.428 32.539 0 63.018-8.824 89.173-24.21l-0.826 0.449z" />
<glyph unicode="&#xe940;" d="M521.626 655.667l21.914 15.483 1.352-1.761-21.668-15.401z" />
<glyph unicode="&#xe941;" d="M20.849 610.611c1.277-6.849 2.007-14.728 2.007-22.778 0-3.039-0.104-6.055-0.309-9.042l0.022 0.404c-1.416 6.385-2.227 13.718-2.227 21.241 0 3.584 0.184 7.124 0.543 10.613l-0.036-0.437z" />
<glyph unicode="&#xe942;" d="M409.6 695.685c0.901 1.638 2.048 2.294 3.768 1.106l-2.54-2.212z" />
<glyph unicode="&#xe943;" d="M407.183 693.842l2.376 1.843 1.229-1.106-2.007-2.253z" />
<glyph unicode="&#xe944;" d="M765.87 738.161l-0.287-1.638-0.655 0.532 1.188 1.147z" />
<glyph unicode="&#xe945;" d="M509.133 352.686l-2.007 2.212z" />
<glyph unicode="&#xe946;" d="M833.085 424.694c-0.41-8.192-4.096-12.493-11.756-12.861-0.599-0.128-1.287-0.201-1.993-0.201-5.52 0-9.994 4.475-9.994 9.994 0 0.519 0.040 1.029 0.116 1.526l-0.007-0.056c0 7.66 2.785 12.288 10.977 12.288 0.41 0.053 0.883 0.083 1.364 0.083 6.057 0 11.001-4.763 11.291-10.747l0.001-0.026z" />
<glyph unicode="&#xe947;" d="M883.876 418.632c10.568-4.096 11.428-11.878 8.192-21.258l-3.031-0.778c-10.568-3.195-16.384-1.106-18.842 6.676s2.212 12.902 13.681 15.36z" />
<glyph unicode="&#xe948;" d="M670.188 667.914c-0.344-0.038-0.743-0.059-1.147-0.059-6.131 0-11.105 4.952-11.141 11.074v0.003c-0.018 0.243-0.029 0.526-0.029 0.812 0 6.311 5.116 11.428 11.428 11.428s11.428-5.116 11.428-11.428c0-0.185-0.004-0.368-0.013-0.551l0.001 0.026c0.573-7.823-4.588-10.199-10.527-11.305z" />
<glyph unicode="&#xe949;" d="M790.692 341.832c-0.084-4.459-3.719-8.042-8.191-8.042-0.332 0-0.66 0.020-0.982 0.058l0.039-0.004c-0.27-0.032-0.584-0.050-0.901-0.050-4.524 0-8.192 3.668-8.192 8.192 0 0.017 0 0.035 0 0.052v-0.003c-0.015 0.2-0.024 0.432-0.024 0.667 0 4.993 3.919 9.071 8.848 9.326l0.023 0.001c0.148 0.009 0.322 0.014 0.496 0.014 4.954 0 8.97-4.016 8.97-8.97 0-0.438-0.031-0.869-0.092-1.291l0.006 0.048z" />
<glyph unicode="&#xe94a;" d="M617.308 411.3c0.029-0.257 0.045-0.555 0.045-0.857 0-4.524-3.668-8.192-8.192-8.192-0.275 0-0.548 0.014-0.816 0.040l0.034-0.003c-0.038-0.001-0.083-0.001-0.129-0.001-5.112 0-9.257 4.144-9.257 9.257 0 0.116 0.002 0.231 0.006 0.345v-0.017c-0.013 0.172-0.020 0.372-0.020 0.573 0 4.524 3.668 8.192 8.192 8.192 0.499 0 0.988-0.045 1.463-0.13l-0.050 0.007c0.004 0 0.009 0 0.014 0 4.818 0 8.724-3.906 8.724-8.724 0-0.173-0.005-0.345-0.015-0.515l0.001 0.024z" />
<glyph unicode="&#xe94b;" d="M752.476 449.966c-4.688 0.221-8.405 4.075-8.405 8.797 0 0.133 0.003 0.265 0.009 0.397l-0.001-0.019c0 5.202 2.253 7.987 7.537 7.864 0.32 0.044 0.69 0.070 1.065 0.070 4.524 0 8.192-3.668 8.192-8.192 0-0.024 0-0.049 0-0.073v0.004c0.246-5.284-3.236-8.028-8.397-8.847z" />
<glyph unicode="&#xe94c;" d="M634.102 555.93c4.096 0 6.226-2.662 6.472-7.782s-2.54-8.929-7.946-8.806c-0.085-0.003-0.186-0.005-0.287-0.005-4.366 0-7.905 3.539-7.905 7.905 0 0.002 0 0.004 0 0.005v0c-0.082 4.833 2.58 8.643 9.667 8.684z" />
<glyph unicode="&#xe94d;" d="M837.345 174.674c0-6.308-3.113-8.192-8.192-8.192s-7.045 3.604-6.758 8.438c0 0.007 0 0.016 0 0.025 0 4.185 3.393 7.578 7.578 7.578 0.216 0 0.43-0.009 0.642-0.027l-0.028 0.002c3.785-0.135 6.802-3.236 6.802-7.041 0-0.276-0.016-0.548-0.047-0.815l0.003 0.033z" />
<glyph unicode="&#xe94e;" d="M902.308 284.447c3.816-0.406 6.762-3.607 6.762-7.497 0-0.086-0.001-0.172-0.004-0.257v0.012c0.036-0.272 0.056-0.586 0.056-0.904 0-4.027-3.264-7.291-7.291-7.291-0.077 0-0.155 0.001-0.231 0.004h0.011c-3.97 0.158-7.128 3.414-7.128 7.408 0 0.045 0 0.090 0.001 0.135v-0.007c-0.41 5.407 3.686 6.881 7.823 8.397z" />
<glyph unicode="&#xe94f;" d="M528.261 472.166c0.044-0.284 0.069-0.612 0.069-0.946 0-3.597-2.916-6.513-6.513-6.513-0.27 0-0.536 0.016-0.797 0.048l0.031-0.003c-4.096 0-7.086 1.393-7.455 5.734-0.079 0.407-0.125 0.875-0.125 1.353 0 4.037 3.227 7.321 7.243 7.412h0.008c4.342 0.287 6.717-3.113 7.537-7.086z" />
<glyph unicode="&#xe950;" d="M609.444 615.158c-0.245-0.033-0.527-0.052-0.815-0.052-3.552 0-6.431 2.879-6.431 6.431 0 0.351 0.028 0.695 0.082 1.031l-0.005-0.037c0 3.891 1.393 7.25 5.816 6.963 0.108 0.006 0.234 0.010 0.361 0.010 3.71 0 6.717-3.008 6.717-6.717 0-0.234-0.012-0.466-0.035-0.694l0.002 0.029c0.026-0.216 0.041-0.466 0.041-0.719 0-3.274-2.51-5.961-5.711-6.243l-0.024-0.002z" />
<glyph unicode="&#xe951;" d="M861.757 342.077c4.096-1.106 7.25-3.318 6.84-7.741-0.092-3.843-3.229-6.924-7.086-6.924-3.915 0-7.088 3.173-7.088 7.088 0 0.058 0.001 0.115 0.002 0.172v-0.008c0.041 4.301 3.072 6.636 7.332 7.414z" />
<glyph unicode="&#xe952;" d="M923.853 190.853c-0.435-3.923-3.585-6.988-7.509-7.289l-0.028-0.002c-0.365-0.083-0.784-0.131-1.214-0.131-3.144 0-5.693 2.549-5.693 5.693 0 0.19 0.009 0.378 0.028 0.564l-0.002-0.023c0 4.301 2.417 6.349 6.554 6.554s6.881-0.655 7.864-5.366z" />
<glyph unicode="&#xe953;" d="M761.405 130.929c-3.792 0.768-6.606 4.074-6.606 8.037 0 0.155 0.004 0.31 0.013 0.463l-0.001-0.021c-0.002 0.055-0.003 0.119-0.003 0.184 0 3.167 2.567 5.734 5.734 5.734 0.451 0 0.89-0.052 1.312-0.151l-0.039 0.008c4.301-0.41 5.53-3.4 5.693-7.332-0.041-4.301-2.949-5.734-6.103-6.922z" />
<glyph unicode="&#xe954;" d="M731.668 273.838c4.096-0.983 6.39-2.908 6.103-7.291 0.004-0.084 0.007-0.183 0.007-0.282 0-3.258-2.641-5.898-5.898-5.898-0.335 0-0.664 0.028-0.983 0.082l0.035-0.005c-0.002 0-0.004 0-0.006 0-3.325 0-6.021 2.696-6.021 6.021 0 0.362 0.032 0.716 0.093 1.060l-0.005-0.036c0.246 4.465 3.195 5.775 6.676 6.349z" />
<glyph unicode="&#xe955;" d="M794.010 492.564c-3.588 0.149-6.519 2.785-7.12 6.222l-0.007 0.045c-0.737 3.727 1.556 5.898 5.161 6.185 0.382 0.091 0.82 0.143 1.271 0.143 3.167 0 5.734-2.567 5.734-5.734 0-0.036 0-0.071-0.001-0.107v0.005c0.053-0.296 0.084-0.636 0.084-0.984 0-2.968-2.222-5.416-5.094-5.772l-0.028-0.003z" />
<glyph unicode="&#xe956;" d="M713.318 367.514c-4.465 0-6.84 1.761-7.209 5.53s1.147 6.595 4.956 6.799c0.128 0.009 0.278 0.013 0.429 0.013 3.595 0 6.543-2.774 6.819-6.298l0.001-0.024c0.778-3.932-2.335-5.407-4.997-6.021z" />
<glyph unicode="&#xe957;" d="M767.14 210.309c3.201-0.38 5.721-2.871 6.14-6.026l0.004-0.036c0.492-3.85-2.089-5.693-5.693-5.857s-6.267 1.516-6.267 5.325 2.58 5.448 5.816 6.595z" />
<glyph unicode="&#xe958;" d="M737.157 585.257c2.52-0.156 4.506-2.238 4.506-4.784 0-0.003 0-0.006 0-0.009v0c0-3.441-2.949-4.588-5.693-4.792s-4.383 2.048-4.096 4.71c-0.001 0.032-0.001 0.070-0.001 0.107 0 2.647 2.146 4.792 4.792 4.792 0.174 0 0.345-0.009 0.514-0.027l-0.021 0.002z" />
<glyph unicode="&#xe959;" d="M738.836 528.241c2.867-0.41 4.751-1.802 4.915-4.71s-1.72-3.604-4.096-3.645-5.079 0.942-5.366 3.85 1.884 4.178 4.547 4.506z" />
<glyph unicode="&#xe95a;" d="M591.626 508.047c-0.655-2.826-1.884-4.506-4.301-4.096-2.060 0.235-3.646 1.968-3.646 4.071 0 0.009 0 0.017 0 0.026v-0.001c0 2.703 1.843 3.4 4.096 3.359 0.064 0.004 0.14 0.006 0.216 0.006 1.915 0 3.485-1.476 3.634-3.352l0.001-0.013z" />
<glyph unicode="&#xe95b;" d="M500.777 700.518c-1.393-4.751-2.99-9.38-9.339-9.257-0.264-0.028-0.57-0.044-0.88-0.044-4.841 0-8.765 3.924-8.765 8.765 0 0.362 0.022 0.719 0.065 1.069l-0.004-0.042c-0.005 0.112-0.008 0.244-0.008 0.376 0 4.728 3.833 8.561 8.561 8.561 0.32 0 0.637-0.018 0.948-0.052l-0.038 0.003c5.366 0.164 8.479-3.809 9.462-9.38z" />
<glyph unicode="&#xe95c;" d="M563.773 737.833c3.604 0 6.431-1.352 6.472-5.12s-2.621-5.366-6.185-5.366c-0.192-0.025-0.413-0.040-0.638-0.040-2.677 0-4.878 2.038-5.136 4.647l-0.002 0.021c-0.369 3.85 2.089 5.489 5.489 5.857z" />
<glyph unicode="&#xe95d;" d="M373.35 549.704c-3.195 0.205-5.489 1.679-5.612 5.038-0.009 0.112-0.014 0.243-0.014 0.375 0 2.76 2.237 4.997 4.997 4.997 0.091 0 0.182-0.002 0.272-0.007l-0.013 0.001c3.523 0.287 5.161-1.556 5.161-4.997s-1.024-5.652-4.792-5.407z" />
<glyph unicode="&#xe95e;" d="M414.72 663.45c2.171-1.27 5.448-1.556 4.628-4.874-0.481-1.766-2.071-3.042-3.958-3.042-0.369 0-0.727 0.049-1.068 0.141l0.029-0.007c-2.154 0.133-3.85 1.913-3.85 4.089 0 0.003 0 0.005 0 0.008v0c0.164 2.376 2.048 3.359 4.219 3.686z" />
<glyph unicode="&#xe95f;" d="M376.463 788.746c5.284-0.287 7.782-2.253 7.782-6.472 0.030-0.219 0.047-0.472 0.047-0.729 0-3.122-2.531-5.652-5.652-5.652-0.32 0-0.635 0.027-0.94 0.078l0.033-0.005c-4.096 0.205-7.619 2.54-7.291 7.004 0.246 3.727 2.826 6.349 6.021 5.775z" />
<glyph unicode="&#xe960;" d="M429.302 800.707c2.662-1.065 5.079-2.621 5.038-5.775s-2.458-4.096-5.038-4.096c-3.564 0-4.997 1.884-4.628 5.243 0 2.556 2.072 4.628 4.628 4.628v0z" />
<glyph unicode="&#xe961;" d="M550.502 827.453c-2.54 1.188-5.693 1.966-4.751 5.775 0.38 2.159 2.242 3.778 4.481 3.778 0.387 0 0.762-0.048 1.121-0.139l-0.031 0.007c2.332-0.189 4.152-2.128 4.152-4.492 0-0.251-0.020-0.497-0.060-0.736l0.004 0.026c0.003-0.062 0.005-0.134 0.005-0.207 0-2.262-1.834-4.096-4.096-4.096-0.292 0-0.577 0.031-0.851 0.089l0.027-0.005z" />
<glyph unicode="&#xe962;" d="M356.884 449.802c-5.284 23.552-14.664 46.080-18.022 70.083-1.843 13.189-3.4 26.419-4.915 39.649-0.328 2.785 0 6.349 3.727 6.267s2.335-3.727 2.417-5.857c2.675-42.56 11.985-82.211 26.918-118.978l-0.908 2.529c9.153-21.966 14.469-47.484 14.469-74.244 0-2.123-0.033-4.239-0.1-6.346l0.008 0.308c0.549-11.869 4.679-22.676 11.326-31.477l-0.103 0.143c22.923-37.79 42.741-81.393 57.208-127.369l1.16-4.277c6.84-20.48 14.254-40.428 21.504-60.58 0.89-1.753 1.411-3.822 1.411-6.014 0-2.972-0.959-5.72-2.585-7.952l0.027 0.039c-5.401 11.384-10.615 25.112-14.792 39.284l-0.527 2.086c-10.158 27.279-20.48 54.518-30.228 81.92-10.089 28.219-22.168 52.555-36.674 75.187l0.875-1.459c-8.132 11.839-12.987 26.482-12.987 42.258 0 1.258 0.031 2.508 0.092 3.751l-0.007-0.175c0.011 0.716 0.017 1.56 0.017 2.406 0 28.808-7.144 55.947-19.756 79.743l0.447-0.925z" />
<glyph unicode="&#xe963;" d="M428.442 218.706v-64.102h-0.983v64.471z" />
<glyph unicode="&#xe964;" horiz-adv-x="1022" d="M0.098 489.496c2.947 9.363 4.873 20.186 5.355 31.383l0.009 0.264c26.030 190.042 155.467 344.414 328.859 405.98l3.502 1.084c52.119 19.804 112.383 31.272 175.326 31.272 154.551 0 292.954-69.136 385.97-178.168l0.588-0.706c66.862-75.759 110.892-173.094 120.5-280.344l0.137-1.89c1.957-16.612 3.074-35.855 3.074-55.36 0-153.208-68.894-290.325-177.391-382.061l-0.738-0.608c-71.501-63.303-162.249-106.383-262.426-119.492l-2.497-0.267c-11.139-0.489-21.662-2.097-31.777-4.719l1.057 0.233h-79.921c-1.024 3.218-3.852 1.902-5.9 2.097-46.307 3.835-89.134 13.882-129.265 29.356l3.167-1.074c-176.231 63.819-305.14 217.83-331.897 404.798l-0.318 2.705c-0.491 11.461-2.417 22.283-5.605 32.55l0.242-0.903v9.752c3.267 1.999 2.536 3.998 0 5.998v51.931c2.536 1.999 3.267 3.998 0 5.998zM186.173 94.086c1.999-4.486 6.388-6.632 9.752-9.752 82.375-73.746 191.752-118.829 311.658-118.829 33.816 0 66.795 3.586 98.577 10.398l-3.073-0.552c142.901 26.269 261.036 114.58 327.29 235.385l1.219 2.427c38.78 66.527 61.674 146.439 61.674 231.699 0 17.872-1.006 35.508-2.964 52.857l0.195-2.126c-7.372 75.416-31.573 143.916-68.78 203.454l1.148-1.97c-16.903 28.757-36.082 53.602-57.968 75.767l0.039-0.040c-1.219 1.56-2.341 3.218-3.706 4.876-83.253 89.605-200.337 146.793-330.805 151.141l-0.776 0.020c-7.404 0.436-16.063 0.684-24.779 0.684-80.088 0-155.283-20.955-220.399-57.681l2.246 1.165c-148.891-77.983-250.030-229.129-255.737-404.404l-0.020-0.758c-0.482-7.833-0.756-16.988-0.756-26.207 0-80.271 20.811-155.681 57.332-221.129l-1.182 2.307c26.086-50.199 59.453-92.843 99.284-128.399l0.434-0.381z" />
<glyph unicode="&#xe965;" horiz-adv-x="1022" d="M0.098 421.522c2.536-1.999 3.267-3.998 0-5.998z" />
<glyph unicode="&#xe966;" horiz-adv-x="1022" d="M0.098 479.451c3.267-1.999 2.536-3.998 0-5.998z" />
</font>
</defs>
</svg>
